Хороший динозавр / The Good Dinosaur (2015) BDRip 1080p от Ash61 | 3D-Video | halfOU | Лицензия

 
Автор Сообщение

Russian Mafia ®

Пол:

Стаж: 1 год 8 месяцев

Сообщений: 4257



Награды: 10 (Подробнее)

За внесенный вклад в развитие сайта (Количество: 1) Mega Seeder 4 (Количество: 1) Top Releaser 5 (Количество: 1)
Торрент-статистика

Создавать темы 23-Мар-2016 20:34

[Цитировать]

-Хороший динозавр
The Good Dinosaur
-
Год выпуска: 2015
Страна: США (Walt Disney Pictures, Pixar Animation Studios)
Жанр: Мультфильм, Фэнтези, Комедия, Приключения, Семейный
Продолжительность: 01:33:39
Перевод: Профессиональный дублированный - Лицензия
Режиссер: Питер Сон / Peter Sohn-Роли озвучивали (дублировали):
Папа - Джеффри Райт (Максим Сергеев)
Мама - Фрэнсис МакДорманд (Регина Щукина)
Либби, маленькая - Малиа Нипай-Падилья (Александра Петрова)
Бак, маленький - Райан Типл (Дмитрий Головин)
Арло, маленький - Джек МакГроу (Сергей Маркеев)
Бак - Маркус Скрибнер (Дмитрий Головин)
Арло - Рэймонд Очоа (Сергей Маркеев)
Дружок - Джек Брайт
Forrest Woodbush - Питер Сон (Алексей Макрецкий)
Thunderclap - Стив Зан (Александр Койгеров)
Downpour - Мэнди Фройнд (Ольга Вечерик)
Coldfront - Стивен Клэй Хантер (Андрей Лёвин)
Nash - А.Дж. Бакли (Иван Чабан)
Ramsey - Анна Пэкуин (Варвара Шалагина)
Butch - Сэм Эллиотт (Владислав Лобанов)
Bubbha - Дэвид Боат (Геннадий Меньшиков)
Lurleane - Кэрри Пафф (Екатерина Гаврилова)
Pervis - Кэлам Грант (Александр Разбаш)
Earl - Джон Ратценбергер (Андрей Лёвин)
-Описание: По сюжету динозавры не вымерли, а эволюционировали в разумных существ и живут и здравствуют на Земле. А вот люди остались на довольно примитивной стадии развития. Фильм расскажет историю дружбы динозавра и маленького мальчика.

Знаете ли вы, что...

Во время исследовательской экспедиции по Вайомингу кинематографисты решились сплавиться по реке Снейк. Путешествие снималось на камеру GoPro. В какой-то момент крепеж камеры ослаб, и она упала в реку. К счастью, опытный гид, знавший реку, сумел рассчитать, куда примерно поток вынесет ценную аппаратуру. Камеру нашли, при этом она продолжала работать. Съемочная группа получила бесценный материал, на котором был запечатлен весь заплыв от начала и до конца, в том числе — и подводные съемки.
При создании местности использовались фотографии со спутников. Был написан специальный плагин для программы, который указывал, что любое зеленое пятно на карте — это деревья и другие зеленые насаждения. По той же аналогии наносились на карту и другие типы местности: коричневый — земля и грязь, синий — водоем или река.
Чтобы окунуться в пучину девственной природы был организован исследовательский конный поход в Вайоминг. Дорога кинематографистов проходила вдоль горного хребта Тетон и реки Снейк. Исследовательская экспедиция дошла до Южной Монтаны, испытав на себе непростые климатические условия. Чтобы перенести все увиденные в ходе экспедиции красоты на экран, кинематографисты обратились к техническим специалистам Pixar, поскольку нужно было обработать огромный массив информации. Данные по Вайомингу нашли в Интернете. С остальными территориями создателям фильма помогло Американское Геологическое Управление, специалисты которого предоставили исчерпывающие ландшафтные данные по всем Соединенным Штатам. Большая часть сведений была представлена в качестве аэрофотографий. Информация о высотах точек рельефа местности стала отправной точкой в последующих изысканиях и разработке системы генерирования компьютерного ландшафта.
Работая над семейством тираннозавров, художники черпали вдохновение в семействе фермеров с северо-западного тихоокеанского побережья США. Кинематографисты наткнулись на дом этой семьи во время исследовательского турне и были очарованы их внешностью и отношением к жизни.
Для того, чтобы местность в фильме выглядела реалистично, команда художников и технических специалистов Pixar подробно изучала Дикий Запад Америки, начиная с города Джунтура (штат Орегон) и вплоть до долины Джексон Хоул (штат Вайоминг). Именно в той местности, если верить сценаристам, заблудился Арло.
Готовясь к съемкам фильма, художники и техники из Disney/Pixar создали целую библиотеку различных дождевых и облачных эффектов, которые могли видоизменяться и комбинироваться друг с другом для получения оригинальных сочетаний. Обычно облака рисуются двухмерными, в этом же фильме, впервые в истории мультипликации, они были сделаны стопроцентно объемными. Они подвижны и могут освещаться с любого ракурса, создавая очень реалистичную облачность.
Следующий факт содержит спойлер!Работая над внешностью и поведением Бура (огромный тираннозавр, которого встречает Арло по дороге домой), кинематографисты ориентировались на актеров, которые гармонично смотрелись в образах классических ковбоев, таких как Клинт Иствуд и Джек Пэланс.
Премьера: 10 ноября 2015 (26 ноября 2015)
Релиз на Blu-Ray (DVD) (Россия): 22 марта 2016
Кассовые сборы: $294 191 192


-Качество: BDRip (by Ash61)
Контейнер: MKV
Формат 3D: Half OverUnder / Вертикальная анаморфная стереопара
Порядок ракурсов: левый ракурс первый-Видео: AVC / 23,976 fps / 1920х1080p / 15.6 Mbps
Аудио:
#1 - Русский / AC3 / 48 KHz / 5.1 ch / 640 Kbps (Дубляж - BD Eur)
#2 - Английский / AC3 / 48 KHz / 5.1 ch / 640 Kbps (Original - BD 3D)
Субтитры (внешние SRT):
#1 - Русские Форсированные (включены по умолчанию)
#2 - Русские Полные
#3 - Русские Комментарии
#4 - English Full
#5 - English SDH
#6 - English Commentary

MediaInfo

General
Unique ID : 237384905298802933834249132628544170652 (0xB296AB747A2246A19A89C97EA53DAA9C)
Complete name : E:TheGoodDinosaur(2015)3D-halfOU(Ash61)TheGoodDinosaur(2015)3D-halfOU(Ash61).mkv
Format : Matroska
Format version : Version 2
File size : 11.3 GiB
Duration : 1h 33mn
Overall bit rate : 17.2 Mbps
Movie name : Хороший динозавр / The Good Dinosaur (2015) в 3Д
Encoded date : UTC 2016-03-23 18:47:07
Writing application : mkvmerge v5.8.0 ('No Sleep / Pillow') built on Sep 2 2012 15:37:04
Writing library : libebml v1.2.3 + libmatroska v1.3.0
Video
ID : 1
Format : AVC
Format/Info : Advanced Video Codec
Format profile : High@L4.1
Format settings, CABAC : Yes
Format settings, ReFrames : 4 frames
Codec ID : V_MPEG4/ISO/AVC
Duration : 1h 33mn
Bit rate : 15.6 Mbps
Width : 1 920 pixels
Height : 1 080 pixels
Display aspect ratio : 16:9
Frame rate mode : Constant
Frame rate : 23.976 fps
Color space : YUV
Chroma subsampling : 4:2:0
Bit depth : 8 bits
Scan type : Progressive
Bits/(Pixel*Frame) : 0.314
Stream size : 10.2 GiB (91%)
Title : BDRip by Ash61
Writing library : x264 core 146 r2538 121396c
Encoding settings : cabac=1 / ref=4 / deblock=1:-3:-3 / analyse=0x3:0x113 / me=umh / subme=10 / psy=1 / psy_rd=1.00:0.00 / mixed_ref=1 / me_range=32 / chroma_me=1 / trellis=2 / 8x8dct=1 / cqm=0 / deadzone=21,11 / fast_pskip=1 / chroma_qp_offset=-2 / threads=12 / lookahead_threads=3 / sliced_threads=0 / nr=0 / decimate=1 / interlaced=0 / bluray_compat=0 / constrained_intra=0 / bframes=10 / b_pyramid=2 / b_adapt=2 / b_bias=0 / direct=3 / weightb=1 / open_gop=0 / weightp=2 / keyint=250 / keyint_min=23 / scenecut=40 / intra_refresh=0 / rc_lookahead=60 / rc=crf / mbtree=1 / crf=15.0 / qcomp=0.70 / qpmin=0 / qpmax=69 / qpstep=4 / vbv_maxrate=40000 / vbv_bufsize=30000 / crf_max=0.0 / nal_hrd=none / filler=0 / frame-packing=4 / ip_ratio=1.40 / aq=1:0.70
Language : English
Default : Yes
Forced : No
Audio #1
ID : 2
Format : AC-3
Format/Info : Audio Coding 3
Mode extension : CM (complete main)
Format settings, Endianness : Big
Codec ID : A_AC3
Duration : 1h 33mn
Bit rate mode : Constant
Bit rate : 640 Kbps
Channel(s) : 6 channels
Channel positions : Front: L C R, Side: L R, LFE
Sampling rate : 48.0 KHz
Bit depth : 16 bits
Compression mode : Lossy
Stream size : 429 MiB (4%)
Title : Дубляж - BD Eur
Language : Russian
Default : Yes
Forced : No
Audio #2
ID : 3
Format : AC-3
Format/Info : Audio Coding 3
Mode extension : CM (complete main)
Format settings, Endianness : Big
Codec ID : A_AC3
Duration : 1h 33mn
Bit rate mode : Constant
Bit rate : 640 Kbps
Channel(s) : 6 channels
Channel positions : Front: L C R, Side: L R, LFE
Sampling rate : 48.0 KHz
Bit depth : 16 bits
Compression mode : Lossy
Stream size : 429 MiB (4%)
Title : Original - BD 3D
Language : English
Default : No
Forced : No
Menu
00:00:00.000 : :1. Asteroid
00:03:37.966 : :2. Arlo Is Born
00:06:16.459 : :3. Chores
00:08:14.160 : :4. Make Your Mark
00:12:12.605 : :5. Fireflies
00:14:33.913 : :6. Meet Spot
00:17:42.352 : :7. Arlo Steps Up
00:21:10.644 : :8. Swept Away
00:22:58.167 : :9. Wilderness
00:26:41.057 : :10. Helpless
00:29:02.615 : :11. Spot Investigates
00:33:10.363 : :12. Snake Attack
00:35:28.668 : :13. Pet Collector
00:38:14.458 : :14. Working Together
00:41:08.840 : :15. Orphan Spot
00:45:42.947 : :16. Storm Fear
00:47:47.947 : :17. Ambush
00:51:48.271 : :18. T-Rexes
00:55:46.967 : :19. Rustlers
01:00:22.952 : :20. Campfire
01:03:59.001 : :21. Arlo Herds
01:05:27.213 : :22. Above the Clouds
01:07:11.777 : :23. Spot Taken
01:11:06.427 : :24. Pappa's Help
01:13:43.377 : :25. Into the Storm
01:16:01.430 : :26. Flash Flood
01:19:08.493 : :27. Goodbye Spot
01:23:56.864 : :28. Back Home
01:26:01.113 : :29. End Credits

Для оценки 3Д - Анимированные скрины















[Профиль] [ЛС]
Показать сообщения:    

Текущее время: Сегодня 11:05

Часовой пояс: GMT



Вы не можете начинать темы
Вы не можете отвечать на сообщения
Вы не можете редактировать свои сообщения
Вы не можете удалять свои сообщения
Вы не можете голосовать в опросах
Вы не можете прикреплять файлы к сообщениям
Вы не можете скачивать файлы