Хороший динозавр / The Good Dinosaur (2015) BDRip 1080p от ExKinoRay | Лицензия

 
Автор Сообщение

Russian Mafia ®

Пол:

Стаж: 1 год 8 месяцев

Сообщений: 4253



Награды: 10 (Подробнее)

Mega Seeder 1 (Количество: 1) Top Releaser 5 (Количество: 1) Mega Seeder 3 (Количество: 1)
Торрент-статистика

Создавать темы 20-Мар-2016 09:46

[Цитировать]

Информация о фильме
Название: Хороший динозавр
Оригинальное название: The Good Dinosaur
Год выпуска: 2015
Жанр: Мультфильм, фэнтези, комедия, приключения, семейный
Выпущено: США, Walt Disney Pictures, Pixar Animation Studios
Режиссер: Питер Сон
В ролях: Джеффри Райт, Фрэнсис МакДорманд, Малиа Нипай-Падилья, Райан Типл, Джек МакГроу, Маркус Скрибнер, Рэймонд Очоа, Джек Брайт, Питер Сон, Стив Зан, Мэнди Фройнд, Стивен Клэй Хантер, А.Дж. Бакли, Анна Пакуин, Сэм Эллиотт, Дэвид Боат, Кэрри Пафф, Кэлам Грант, Джон Ратценбергер
О фильме: Представьте, что астероид, некогда навсегда изменивший жизнь на Земле, пролетел мимо нашей планеты и гигантские динозавры существуют по сей день — они далеко обогнали в развитии первобытных людей и создали собственную цивилизацию. Именно там возникла история невероятной дружбы юного бронтозавра Арло и маленького мальчика по имени Дружок. Этим на первый взгляд непохожим героям предстоит вместе совершить опасное путешествие в далекие и таинственные края, научиться бороться со своими страхами и понять, что они не так уж и отличаются друг от друга.

Файл
Качество: BDRip (1080p)
Видео: MPEG-4 AVC, 9090 Кбит/с, 1920x804, 23.976 кадр/с
Аудио: Русский (AC3, 6 ch, 640 Кбит/с), английский (DTS, 6 ch, 1509 Кбит/с)
Размер: 7.37 ГБ
Продолжительность: 01:33:50
Перевод: Дублированный
Субтитры: Русские, английские
Сохранены оригинальные чаптеры как на Blu-Ray.
Озвучивание - Дублированное (Лицензия)

x264

x264 [info]: frame I:1178 Avg QP:16.29 size:300854
x264 [info]: frame P:47690 Avg QP:18.41 size: 75573
x264 [info]: frame B:86126 Avg QP:20.80 size: 28324
x264 [info]: consecutive B-frames: 15.4% 5.5% 11.9% 29.3% 16.8% 17.4% 1.8% 0.8% 0.3% 0.7%
x264 [info]: mb I I16..4: 6.2% 75.7% 18.1%
x264 [info]: mb P I16..4: 1.7% 16.3% 2.3% P16..4: 27.7% 27.6% 12.0% 2.4% 0.4% skip: 9.6%
x264 [info]: mb B I16..4: 0.5% 4.1% 0.5% B16..8: 30.6% 19.2% 3.3% direct: 7.3% skip:34.4% L0:38.8% L1:42.0% BI:19.1%
x264 [info]: 8x8 transform intra:79.5% inter:55.1%
x264 [info]: direct mvs spatial:98.1% temporal:1.9%
x264 [info]: coded y,uvDC,uvAC intra: 80.5% 85.7% 57.5% inter: 29.8% 30.6% 14.8%
x264 [info]: i16 v,h,dc,p: 20% 17% 8% 55%
x264 [info]: i8 v,h,dc,ddl,ddr,vr,hd,vl,hu: 9% 12% 10% 9% 11% 10% 12% 11% 15%
x264 [info]: i4 v,h,dc,ddl,ddr,vr,hd,vl,hu: 33% 10% 12% 5% 8% 7% 8% 6% 8%
x264 [info]: i8c dc,h,v,p: 38% 28% 17% 17%
x264 [info]: Weighted P-Frames: Y:3.1% UV:2.0%
x264 [info]: ref P L0: 64.0% 11.7% 12.6% 5.9% 4.2% 1.5% 0.0%
x264 [info]: ref B L0: 84.0% 11.5% 3.5% 1.1%
x264 [info]: ref B L1: 94.7% 5.3%
x264 [info]: kb/s:9090.57

Инфо-файл

Общее
Уникальный идентификатор : 183979628000856098204753250339683464006 (0x8A692FFE31124F4AB98CEAFF60B67346)
Полное имя : D:ЗагрузкиThe.Good.Dinosaur.2015.x264.BDRip.(1080p).ExKinoRay.mkv
Формат : Matroska
Версия формата : Version 2
Размер файла : 7,37 Гбайт
Продолжительность : 1 ч. 33 м.
Общий поток : 11,2 Мбит/сек
Название фильма : Хороший динозавр.2015.Rip by: ollan
Дата кодирования : UTC 2016-03-20 09:15:09
Программа кодирования : mkvmerge v5.6.0 ('Kenya Kane') built on May 27 2012 16:44:04
Библиотека кодирования : libebml v1.2.3 + libmatroska v1.3.0
Attachements : Cover - The.Good.Dinosaur.png
Видео
Идентификатор : 1
Формат : AVC
Формат/Информация : Advanced Video Codec
Профиль формата : High@L4.1
Параметр CABAC формата : Да
Параметр ReFrames формата : 5 кадров
Идентификатор кодека : V_MPEG4/ISO/AVC
Продолжительность : 1 ч. 33 м.
Битрейт : 9090 Кбит/сек
Ширина : 1920 пикселей
Высота : 804 пикселя
Соотношение сторон : 2,40:1
Режим частоты кадров : Постоянный
Частота кадров : 23,976 (24000/1001) кадра/сек
Цветовое пространство : YUV
Субдискретизация насыщенности : 4:2:0
Битовая глубина : 8 бит
Тип развёртки : Прогрессивная
Бит/(Пиксели*Кадры) : 0.246
Размер потока : 5,81 Гбайт (79%)
Библиотека кодирования : x264 core 146 r2538 121396c
Настройки программы : cabac=1 / ref=5 / deblock=1:-3:-3 / analyse=0x3:0x133 / me=umh / subme=11 / psy=1 / psy_rd=1.00:0.05 / mixed_ref=1 / me_range=48 / chroma_me=1 / trellis=2 / 8x8dct=1 / cqm=0 / deadzone=21,11 / fast_pskip=0 / chroma_qp_offset=-3 / threads=12 / lookahead_threads=2 / sliced_threads=0 / nr=0 / decimate=0 / interlaced=0 / bluray_compat=0 / constrained_intra=0 / bframes=9 / b_pyramid=2 / b_adapt=2 / b_bias=0 / direct=3 / weightb=1 / open_gop=0 / weightp=2 / keyint=240 / keyint_min=23 / scenecut=40 / intra_refresh=0 / rc_lookahead=40 / rc=2pass / mbtree=0 / bitrate=9090 / ratetol=1.0 / qcomp=0.60 / qpmin=0 / qpmax=69 / qpstep=4 / cplxblur=20.0 / qblur=0.5 / vbv_maxrate=50000 / vbv_bufsize=62500 / nal_hrd=none / filler=0 / ip_ratio=1.40 / pb_ratio=1.30 / aq=1:1.00
Язык : English
Default : Да
Forced : Нет
Аудио #1
Идентификатор : 2
Формат : AC-3
Формат/Информация : Audio Coding 3
Расширение режима : CM (complete main)
Параметр Endianness формата : Big
Идентификатор кодека : A_AC3
Продолжительность : 1 ч. 33 м.
Вид битрейта : Постоянный
Битрейт : 640 Кбит/сек
Каналы : 6 каналов
Расположение каналов : Front: L C R, Side: L R, LFE
Частота : 48,0 КГц
Частота кадров : 31,250 кадров/сек (1536 spf)
Метод сжатия : С потерями
Размер потока : 430 Мбайт (6%)
Заголовок : Дублированный (Лицензия)
Язык : Russian
Default : Да
Forced : Нет
Аудио #2
Идентификатор : 3
Формат : DTS
Формат/Информация : Digital Theater Systems
Режим : 16
Параметр Endianness формата : Big
Идентификатор кодека : A_DTS
Продолжительность : 1 ч. 33 м.
Вид битрейта : Постоянный
Битрейт : 1509 Кбит/сек
Каналы : 6 каналов
Расположение каналов : Front: L C R, Side: L R, LFE
Частота : 48,0 КГц
Частота кадров : 93,750 кадра/сек (512 spf)
Битовая глубина : 24 бит
Метод сжатия : С потерями
Размер потока : 1013 Мбайт (13%)
Язык : English
Default : Нет
Forced : Нет
Текст #1
Идентификатор : 4
Формат : UTF-8
Идентификатор кодека : S_TEXT/UTF8
Идентификатор кодека/Информация : UTF-8 Plain Text
Заголовок : Full
Язык : Russian
Default : Нет
Forced : Нет
Текст #2
Идентификатор : 5
Формат : UTF-8
Идентификатор кодека : S_TEXT/UTF8
Идентификатор кодека/Информация : UTF-8 Plain Text
Заголовок : SDH
Язык : English
Default : Нет
Forced : Нет
Меню
00:00:00.000 : en:Chapter 01
00:03:37.967 : en:Chapter 02
00:06:16.459 : en:Chapter 03
00:08:14.160 : en:Chapter 04
00:12:12.606 : en:Chapter 05
00:14:33.914 : en:Chapter 06
00:17:42.352 : en:Chapter 07
00:21:10.644 : en:Chapter 08
00:22:58.168 : en:Chapter 09
00:26:41.057 : en:Chapter 10
00:29:02.615 : en:Chapter 11
00:33:10.363 : en:Chapter 12
00:35:28.668 : en:Chapter 13
00:38:14.458 : en:Chapter 14
00:41:08.841 : en:Chapter 15
00:45:42.948 : en:Chapter 16
00:47:47.948 : en:Chapter 17
00:51:48.271 : en:Chapter 18
00:55:46.968 : en:Chapter 19
01:00:22.952 : en:Chapter 20
01:03:59.001 : en:Chapter 21
01:05:27.214 : en:Chapter 22
01:07:11.777 : en:Chapter 23
01:11:06.428 : en:Chapter 24
01:13:43.377 : en:Chapter 25
01:16:01.431 : en:Chapter 26
01:19:08.493 : en:Chapter 27
01:23:56.865 : en:Chapter 28
01:26:01.114 : en:Chapter 29
01:33:50.207 : en:Chapter 30

Скриншоты



[Профиль] [ЛС]
Показать сообщения:    

Текущее время: Сегодня 12:51

Часовой пояс: GMT



Вы не можете начинать темы
Вы не можете отвечать на сообщения
Вы не можете редактировать свои сообщения
Вы не можете удалять свои сообщения
Вы не можете голосовать в опросах
Вы не можете прикреплять файлы к сообщениям
Вы не можете скачивать файлы