Хороший год / A Good Year (2006) BDRip 720p

 
Автор Сообщение

Russian Mafia ®

Пол:

Стаж: 1 год 8 месяцев

Сообщений: 4252



Награды: 10 (Подробнее)

Top Releaser 3 (Количество: 1) Mega Seeder 4 (Количество: 1) Top Releaser 4 (Количество: 1)
Торрент-статистика

Создавать темы 17-Авг-2016 12:08

[Цитировать]

Информация о фильме
Название: Хороший год
Оригинальное название: A Good Year
Год выхода: 2006
Жанр: драма, мелодрама, комедия
Режиссер: Ридли Скотт
В ролях: Рассел Кроу, Марион Котийяр, Альберт Финни, Фредди Хаймор, Том Холландер, Рейф Сполл, Арчи Панджаби, Ричард Койл, Эбби Корниш, Бен Райтон
О фильме: Воротила Лондонской фондовой биржи, безумно умный, удачливый менеджер и по совместительству большой зануда наследует винодельню в Провансе. По прибытии во Францию он обнаруживает, что, кроме него, есть еще люди, претендующие на его законную собственность. Цепочка невероятных событий и открытий заставят его по-новому взглянуть на истинные ценности этого мира…

Выпущено: Fox 2000 Pictures
Продолжительность: 01:57:32
Перевод: Дублированный (лицензия)
Файл
Кодек: x264
Качество: BDRip (источник: Blu-ray Disc)
Видео: 1280x546 (2,35:1), 23.976 fps, 4170 kbps
Аудио #1: AC-3, 6 ch, 448 kbps (Rus)
Аудио #2: AC-3, 6 ch, 448 kbps (Eng)
Субтитры: Русские (форс,полные), Английские
Скачать: сэмпл
Скриншоты

MI

Общее
Уникальный идентификатор : 208487395699732734812603057418699840677 (0x9CD9363B2E8A643982B2DFEEC8B49CA5)
Полное имя : A.Good.Year.2006.BDRip.720p.Rus.Eng.mkv
Формат : Matroska
Версия формата : Version 2
Размер файла : 4,16 Гбайт
Продолжительность : 1 ч. 57 м.
Общий поток : 5071 Кбит/сек
Название фильма : Хороший год / A Good Year (2006)
Дата кодирования : UTC 2015-01-11 01:14:20
Программа кодирования : mkvmerge v5.8.0 ('No Sleep / Pillow') built on Sep 2 2012 15:37:04
Библиотека кодирования : libebml v1.2.3 + libmatroska v1.3.0
Видео
Идентификатор : 1
Формат : AVC
Формат/Информация : Advanced Video Codec
Профиль формата : High@L4.1
Параметр CABAC формата : Да
Параметр ReFrames формата : 9 кадров
Идентификатор кодека : V_MPEG4/ISO/AVC
Продолжительность : 1 ч. 57 м.
Битрейт : 4173 Кбит/сек
Ширина : 1280 пикселей
Высота : 546 пикселей
Соотношение сторон : 2,35:1
Режим частоты кадров : Постоянный
Частота кадров : 23,976 кадра/сек
Цветовое пространство : YUV
Субдискретизация насыщенности : 4:2:0
Битовая глубина : 8 бит
Тип развёртки : Прогрессивная
Бит/(Пиксели*Кадры) : 0.249
Размер потока : 3,34 Гбайт (80%)
Заголовок : Release by AlexKa
Библиотека кодирования : x264 core 144 r2525 40bb568
Настройки программы : cabac=1 / ref=9 / deblock=1:-3:-3 / analyse=0x3:0x133 / me=umh / subme=11 / psy=1 / psy_rd=1.00:0.10 / mixed_ref=1 / me_range=32 / chroma_me=1 / trellis=2 / 8x8dct=1 / cqm=0 / deadzone=21,11 / fast_pskip=0 / chroma_qp_offset=-3 / threads=12 / lookahead_threads=3 / sliced_threads=0 / nr=0 / decimate=0 / interlaced=0 / bluray_compat=0 / constrained_intra=0 / bframes=13 / b_pyramid=2 / b_adapt=2 / b_bias=0 / direct=3 / weightb=1 / open_gop=0 / weightp=2 / keyint=240 / keyint_min=23 / scenecut=40 / intra_refresh=0 / rc=2pass / mbtree=0 / bitrate=4173 / ratetol=1.0 / qcomp=0.60 / qpmin=0 / qpmax=69 / qpstep=4 / cplxblur=20.0 / qblur=0.5 / ip_ratio=1.40 / pb_ratio=1.30 / aq=1:0.80
Язык : English
Аудио #1
Идентификатор : 2
Формат : AC-3
Формат/Информация : Audio Coding 3
Расширение режима : CM (complete main)
Параметр Endianness формата : Big
Идентификатор кодека : A_AC3
Продолжительность : 1 ч. 57 м.
Вид битрейта : Постоянный
Битрейт : 448 Кбит/сек
Каналы : 6 каналов
Расположение каналов : Front: L C R, Side: L R, LFE
Частота : 48,0 КГц
Битовая глубина : 16 бит
Метод сжатия : С потерями
Размер потока : 377 Мбайт (9%)
Заголовок : Rus
Язык : Russian
Аудио #2
Идентификатор : 3
Формат : AC-3
Формат/Информация : Audio Coding 3
Расширение режима : CM (complete main)
Параметр Endianness формата : Big
Идентификатор кодека : A_AC3
Продолжительность : 1 ч. 57 м.
Вид битрейта : Постоянный
Битрейт : 448 Кбит/сек
Каналы : 6 каналов
Расположение каналов : Front: L C R, Side: L R, LFE
Частота : 48,0 КГц
Битовая глубина : 16 бит
Метод сжатия : С потерями
Размер потока : 377 Мбайт (9%)
Заголовок : Eng
Язык : English
Текст #1
Идентификатор : 4
Формат : UTF-8
Идентификатор кодека : S_TEXT/UTF8
Идентификатор кодека/Информация : UTF-8 Plain Text
Заголовок : Rus forced
Язык : Russian
Текст #2
Идентификатор : 5
Формат : UTF-8
Идентификатор кодека : S_TEXT/UTF8
Идентификатор кодека/Информация : UTF-8 Plain Text
Заголовок : Rus
Язык : Russian
Текст #3
Идентификатор : 6
Формат : UTF-8
Идентификатор кодека : S_TEXT/UTF8
Идентификатор кодека/Информация : UTF-8 Plain Text
Заголовок : Eng
Язык : English
Меню
00:00:00.000 : en:Main Titles/A Few Vintages Ago
00:04:26.349 : en:Timing
00:07:51.179 : en:Toast of the Town
00:13:02.448 : en:France and a Little Car
00:16:14.264 : en:Uncle Henry's Estate
00:23:19.064 : en:Meeting with the Notaire
00:28:07.310 : en:Stuck in the Pool
00:35:28.543 : en:A Forced Holiday
00:39:23.444 : en:72 Hours
00:43:26.895 : en:Christie Roberts
00:48:38.915 : en:Enjoying Himself
00:52:35.026 : en:Memories
00:56:42.357 : en:Fanny Chenal
01:01:45.201 : en:Henry's Spirit
01:05:56.744 : en:Dinner with the Duflots
01:14:02.145 : en:Testing the Vines
01:20:08.386 : en:Charlie Arrives
01:25:28.957 : en:Two Untrusting Souls
01:31:11.090 : en:To Sell or Not to Sell
01:35:20.130 : en:Saying Goodbye
01:37:06.236 : en:A Fabricated Truth
01:38:53.093 : en:The Offer
01:44:08.784 : en:Choosing Love
01:51:28.348 : en:End Titles

x264

x264 [info]: frame I:1723 Avg QP:15.24 size:126108
x264 [info]: frame P:35702 Avg QP:18.40 size: 42899
x264 [info]: frame B:131651 Avg QP:20.14 size: 14654
x264 [info]: consecutive B-frames: 2.4% 4.2% 5.7% 14.5% 16.7% 42.3% 5.8% 1.9% 1.6% 1.5% 0.9% 0.7% 0.8% 0.9%
[Профиль] [ЛС]
Показать сообщения:    

Текущее время: Сегодня 00:48

Часовой пояс: GMT



Вы не можете начинать темы
Вы не можете отвечать на сообщения
Вы не можете редактировать свои сообщения
Вы не можете удалять свои сообщения
Вы не можете голосовать в опросах
Вы не можете прикреплять файлы к сообщениям
Вы не можете скачивать файлы