Хороший год / A Good Year (Ридли Скотт / Ridley Scott) [2006, США, Драма, Любовный роман, HDTVRip] Dub

 
Автор Сообщение

TorrentFilm ®

Пол:

Стаж: 2 года

Сообщений: 7741



Награды: Нет

Торрент-статистика

Создавать темы 25-Апр-2015 00:03

[Цитировать]

Хороший год / A Good Year
Страна: США
Жанр: Драма, Любовный роман
Год выпуска: 2006
Продолжительность: 01:48:01
Перевод: Профессиональный (дублированный)
Cубтитры: нет
Оригинальная аудиодорожка: нет
Режиссер: Ридли Скотт / Ridley Scott
В ролях: Расселл Кроу /Russell Crowe/, Альберт Финни /Albert Finney/, Марион Котияр /Marion Cotillard/, Эбби Корниш /Abbie Cornish/, Том Холландер /Tom Hollander/, Фредди Хаймор /Freddie Highmore/
Описание: Воротила Лондонской фондовой биржи, безумно умный, удачливый менеджер и по совместительству большой зануда наследует винодельню в Провансе. По прибытии во Францию он обнаруживает, что, кроме него, есть еще люди, претендующие на его законную собственность. Цепочка невероятных событий и открытий заставят его по-новому взглянуть на истинные ценности этого мира…
Доп. информация: Рип с канала Первый HD. Из видеоряда удален логотип канала, остались послерекламные вставки с названием фильма. HDTV имеет иное наполнение кадра чем BD http://screenshotcomparison.com/comparison/121449
Сэмпл: http://multi-up.com/1043182
Качество видео: HDTVRip
Формат видео: AVI
Видео: MPEG4, XviD, 720x400 (16/9), 25.000 fps, 1 723 Kbps (0.239 bit/pixel)
Аудио: AC-3, 48.0 KHz, 2 ch, 192 Kbps, CBR

MediaInfo

Общее
Полное имя : K:\Хороший год.avi
Формат : AVI
Формат/Информация : Audio Video Interleave
Размер файла : 1,45 Гбайт
Продолжительность : 1 ч. 48 м.
Общий поток : 1925 Кбит/сек
Название фильма : Хороший год / A Good Year (2006)
Программа кодирования : VirtualDubMod 1.5.10.2 (build 2540/release)
Библиотека кодирования : VirtualDubMod build 2540/release
Правообладатель : miha2154
Видео
Идентификатор : 0
Формат : MPEG-4 Visual
Профиль формата : Advanced Simple@L5
Параметр BVOP формата : 1
Параметр QPel формата : Нет
Параметр GMC формата : Без точки перехода
Параметр матрицы формата : Выборочная
Идентификатор кодека : XVID
Идентификатор кодека/Подсказка : XviD
Продолжительность : 1 ч. 48 м.
Битрейт : 1723 Кбит/сек
Ширина : 720 пикселей
Высота : 400 пикселей
Соотношение сторон : 16:9
Частота кадров : 25,000 кадров/сек
Цветовое пространство : YUV
Субдискретизация насыщенности : 4:2:0
Битовая глубина : 8 бит
Тип развёртки : Прогрессивная
Метод сжатия : С потерями
Бит/(Пиксели*Кадры) : 0.239
Размер потока : 1,30 Гбайт (90%)
Библиотека кодирования : XviD 65
Аудио
Идентификатор : 1
Формат : AC-3
Формат/Информация : Audio Coding 3
Расширение режима : CM (complete main)
Параметр Endianness формата : Big
Идентификатор кодека : 2000
Продолжительность : 1 ч. 48 м.
Вид битрейта : Постоянный
Битрейт : 192 Кбит/сек
Каналы : 2 канала
Расположение каналов : Front: L R
Частота : 48,0 КГц
Битовая глубина : 16 бит
Метод сжатия : С потерями
Размер потока : 148 Мбайт (10%)
Выравнивание : Разделение по промежуткам
Продолжительность промежутка : 40 мс. (1,00 видеокадр)
Время предзагрузки промежутка : 500 мс.
Заголовок : Профессиональный (полное дублирование)

Скриншоты


[Профиль] [ЛС]

Создавать темы 06-Авг-2015 22:35 (спустя 3 месяца 11 дней)

Топик был перенесен из форума Фильмы до 2014 года в форум Фильмы до 2012 года
sergej644
 
Показать сообщения:    

Текущее время: Сегодня 20:26

Часовой пояс: GMT



Вы не можете начинать темы
Вы не можете отвечать на сообщения
Вы не можете редактировать свои сообщения
Вы не можете удалять свои сообщения
Вы не можете голосовать в опросах
Вы не можете прикреплять файлы к сообщениям
Вы не можете скачивать файлы