Хороший год / A Good Year (Ридли Скотт / Ridley Scott) [2006, США, Великобритания, драма, мелодрама, комедия, BDRip] Dub + Original (Eng) + Sub (Rus, Eng)

 
Автор Сообщение

TorrentFilm ®

Пол:

Стаж: 2 года

Сообщений: 7741



Награды: Нет

Торрент-статистика

Создавать темы 17-Янв-2015 00:00

[Цитировать]

Хороший год / A Good YearГод выпуска: 2006
Страна: США, Великобритания
Жанр: драма, мелодрама, комедия
Продолжительность: 01:57:32
Перевод: Профессиональный (полное дублирование)
Субтитры: русские, английские - softsub (SRT)
Оригинальная аудиодорожка: английский
Режиссер: Ридли Скотт / Ridley Scott
В ролях: Рассел Кроу (Max Skinner), Марион Котийяр (Fanny Chenal), Альберт Финни (Uncle Henry), Фредди Хаймор (Young Max), Том Холландер (Charlie Willis), Рейф Сполл (Kenny), Арчи Панджаби (Gemma), Ричард Койл (Amis), Эбби Корниш (Christie Roberts), Бен Райтон (Trader #1), Патрик Кеннеди (Trader #2), Али Родс (20-Something Beauty)-Бюджет: $35 000 000
Мировая премьера: 9 сентября 2006-Описание: Воротила Лондонской фондовой биржи, безумно умный, удачливый менеджер и по совместительству большой зануда наследует винодельню в Провансе. По прибытии во Францию он обнаруживает, что, кроме него, есть еще люди, претендующие на его законную собственность. Цепочка невероятных событий и открытий заставят его по-новому взглянуть на истинные ценности этого мира...- Рейтинг
kinopoisk.ru: 7.790 (36 473)
imdb.com: 6.90 (61 051)
MPAA: PG-13 - Детям до 13 лет просмотр не желателен
-Качество: BDRip
Формат: AVI //SAMPLE//
Видео: 720x304 (2.37:1), 23.976 fps, XviD MPEG-4 ~1757 kbps avg, 0.34 bit/pixel
Аудио RUS: 48 kHz, AC3 Dolby Digital, 3/2 (L,C,R,l,r) + LFE ch, ~448 kbps - DUB
Аудио ENG: 48 kHz, AC3 Dolby Digital, 3/2 (L,C,R,l,r) + LFE ch, ~448 kbps - Original
AVO Иванов (отдельно) - спасибо Enclave76

MediaInfo

Общее
Полное имя : F:\Video\AVI\Films\Horoshij.God.2006.DUAL.BDRip.XviD.AC3.-AllFilms\Horoshij.God.2006.DUAL.BDRip.XviD.AC3.-AllFilms.avi
Формат : AVI
Формат/Информация : Audio Video Interleave
Профиль формата : OpenDML
Размер файла : 2,18 Гбайт
Продолжительность : 1 ч. 57 м.
Общий поток : 2660 Кбит/сек
Название фильма : Хороший год / A Good Year (2006)
Режиссёр : Shevon (Blu-Ray Disk CEE)
Программа кодирования : VirtualDubMod 1.5.10.3 | www.virtualdub-fr.org || (build 2550/release)
Правообладатель : AllFilms (torrentfilm.net)
Видео
Идентификатор : 0
Формат : MPEG-4 Visual
Профиль формата : Advanced Simple@L5
Параметр BVOP формата : 1
Параметр QPel формата : Нет
Параметр GMC формата : Без точки перехода
Параметр матрицы формата : Выборочная
Идентификатор кодека : XVID
Идентификатор кодека/Подсказка : XviD
Продолжительность : 1 ч. 57 м.
Битрейт : 1746 Кбит/сек
Ширина : 720 пикселей
Высота : 304 пикселя
Соотношение сторон : 2,35:1
Частота кадров : 23,976 кадра/сек
Цветовое пространство : YUV
Субдискретизация насыщенности : 4:2:0
Битовая глубина : 8 бит
Тип развёртки : Прогрессивная
Метод сжатия : С потерями
Бит/(Пиксели*Кадры) : 0.333
Размер потока : 1,43 Гбайт (66%)
Библиотека кодирования : XviD 66
Аудио #1
Идентификатор : 1
Формат : AC-3
Формат/Информация : Audio Coding 3
Расширение режима : CM (complete main)
Параметр Endianness формата : Big
Идентификатор кодека : 2000
Продолжительность : 1 ч. 57 м.
Вид битрейта : Постоянный
Битрейт : 448 Кбит/сек
Каналы : 6 каналов
Расположение каналов : Front: L C R, Side: L R, LFE
Частота : 48,0 КГц
Битовая глубина : 16 бит
Метод сжатия : С потерями
Размер потока : 377 Мбайт (17%)
Выравнивание : Разделение по промежуткам
Продолжительность промежутка : 42 мс. (1,00 видеокадр)
Время предзагрузки промежутка : 500 мс.
Аудио #2
Идентификатор : 2
Формат : AC-3
Формат/Информация : Audio Coding 3
Расширение режима : CM (complete main)
Параметр Endianness формата : Big
Идентификатор кодека : 2000
Продолжительность : 1 ч. 57 м.
Вид битрейта : Постоянный
Битрейт : 448 Кбит/сек
Каналы : 6 каналов
Расположение каналов : Front: L C R, Side: L R, LFE
Частота : 48,0 КГц
Битовая глубина : 16 бит
Метод сжатия : С потерями
Размер потока : 377 Мбайт (17%)
Выравнивание : Разделение по промежуткам
Продолжительность промежутка : 42 мс. (1,00 видеокадр)
Время предзагрузки промежутка : 500 мс.

Скриншоты


-
Знаете ли Вы, что...

  • Фильм снят по мотивам романа Питера Мэйла «Хороший год» (A Good Year, 2004).
  • Режиссер Ридли Скотт был автором основных элементов сюжета, затем на основе них писатель Питер Мэйл написал книгу, которая должна была послужить основой для фильма. Когда книга была издана, оказалось, что замыслы автора сильно отличались от первоначальных идей Ридли Скотта, и в результате режиссёр предпочёл снять историю в фильме такой, какой она представлялась ему с самого начала.
  • Книга, которую Кристи берёт почитать у Макса, это «Смерть в Венеции» немецкого писателя Томаса Манна.
  • По словам режиссёра и продюсера Ридли Скотта все сцены во Франции были сняты не далее чем в восьми минутах езды от его дома в Провансе, в котором он периодически живёт на протяжении 15 лет.
  • Одна из ролей в фильме должна была достаться Аарону Экхарту, но актёр в последний момент выбыл из проекта.
  • В одной из сцен фильма герой Рассела Кроу поднимает горсть земли в винограднике, растирает ее и нюхает. Это отсылка к «Гладиатору», над которым трудились все те же Кроу и Скотт.
  • еще 3 факта
-
[Профиль] [ЛС]

Создавать темы 06-Авг-2015 22:48 (спустя 6 месяцев 20 дней)

Топик был перенесен из форума Фильмы до 2014 года в форум Фильмы до 2012 года
sergej644
 
Показать сообщения:    

Текущее время: Сегодня 06:23

Часовой пояс: GMT



Вы не можете начинать темы
Вы не можете отвечать на сообщения
Вы не можете редактировать свои сообщения
Вы не можете удалять свои сообщения
Вы не можете голосовать в опросах
Вы не можете прикреплять файлы к сообщениям
Вы не можете скачивать файлы