Хороший год / A Good Year (Ридли Скотт / Ridley Scott) [2006, США, Великобритания, драма, мелодрама, комедия, BDRip-AVC] Dub + AVO (Иванов) + Original (Eng) + Sub (Rus, Eng)

 
Автор Сообщение

TorrentFilm ®

Пол:

Стаж: 2 года

Сообщений: 7741



Награды: Нет

Торрент-статистика

Создавать темы 13-Янв-2015 00:00

[Цитировать]

Хороший год / A Good Year
Страна: США, Великобритания
Жанр: драма, мелодрама, комедия
Год выпуска: 2006
Продолжительность: 01:57:32
Перевод#1: Профессиональный (дублированный) | BD CEE
Перевод#2: Авторский (одноголосый закадровый), М. Иванов (отдельно)
Cубтитры: русские, английские + англ. хардсаб на французскую речь
Оригинальная аудиодорожка: английский
Режиссер: Ридли Скотт / Ridley Scott
В ролях: Рассел Кроу, Марион Котийяр, Альберт Финни, Фредди Хаймор, Том Холландер, Рейф Сполл, Арчи Панджаби, Ричард Койл, Бен Райтон, Патрик Кеннеди
Описание: Воротила Лондонской фондовой биржи, безумно умный, удачливый менеджер и по совместительству большой зануда наследует винодельню в Провансе. По прибытии во Францию он обнаруживает, что, кроме него, есть еще люди, претендующие на его законную собственность. Цепочка невероятных событий и открытий заставят его по-новому взглянуть на истинные ценности этого мира...

Исходник: BD CEE
Качество видео: BDRip-AVC | | sample
Формат видео: MKV
Видео кодек: x264
Видео: AVC 1150x490 (2.35:1), 23.976 fps, ~4450 Kbps, 0.33 bit/pixel
Аудио #1: Russian AC3 6ch 48kHz 448Kbps | Dub BD CEE
Аудио #2: English AC3 6ch 48kHz 448Kbps | Original
Аудио #3: Russian AC3 6ch 48kHz 384Kbps | AVO Иванов (отдельным файлом)
Формат субтитров: softsub (SRT)
Главы: есть, подписаны

MediaInfo | x264x264

--[Information] [12.01.2015 4:42:51] x264 [info]: frame I:1823 Avg QP:15.23 size:100950
--[Information] [12.01.2015 4:42:51] x264 [info]: frame P:32528 Avg QP:17.44 size: 40286
--[Information] [12.01.2015 4:42:51] x264 [info]: frame B:134726 Avg QP:18.42 size: 18030
--[Information] [12.01.2015 4:42:51] x264 [info]: consecutive B-frames: 1.8% 1.6% 4.2% 15.2% 17.7% 41.5% 7.0% 2.0% 1.9% 1.5% 2.9% 0.6% 0.7% 1.1% 0.4%
--[Information] [12.01.2015 4:42:51] x264 [info]: kb/s:4451.12
General
Complete name : E:\...\A.Good.Year.2006.BDRip.x264.DD5.1.Rus.Eng-E76.mkv
Format : Matroska
Format version : Version 2
File size : 4.39 GiB
Duration : 1h 57mn
Overall bit rate : 5 349 Kbps
Movie name : A.Good.Year.2006.BDRip.x264.DD5.1.Rus.Eng-E76
Encoded date : UTC 2015-01-12 03:04:57
Writing application : mkvmerge v7.0.0 ('Where We Going') 64bit built on Jun 9 2014 15:16:27
Writing library : libebml v1.3.0 + libmatroska v1.4.1
Video
ID : 1
Format : AVC
Format/Info : Advanced Video Codec
Format profile : High@L4.1
Format settings, CABAC : Yes
Format settings, ReFrames : 10 frames
Codec ID : V_MPEG4/ISO/AVC
Bit rate : 4 347 Kbps
Width : 1 150 pixels
Height : 490 pixels
Display aspect ratio : 2.35:1
Frame rate mode : Constant
Color space : YUV
Chroma subsampling : 4:2:0
Bit depth : 8 bits
Scan type : Progressive
Title : A Good Year (2006)
Writing library : x264 core 142 r2491kMod 24e4fed
Encoding settings : cabac=1 / ref=10 / deblock=1:-3:-3 / analyse=0x3:0x113 / me=umh / subme=11 / psy=1 / fade_compensate=0.00 / psy_rd=1.10:0.05 / mixed_ref=1 / me_range=48 / chroma_me=1 / trellis=2 / 8x8dct=1 / cqm=0 / deadzone=21,11 / fast_pskip=1 / chroma_qp_offset=-3 / threads=6 / lookahead_threads=1 / sliced_threads=0 / nr=0 / decimate=1 / interlaced=0 / bluray_compat=0 / constrained_intra=0 / fgo=0 / bframes=14 / b_pyramid=2 / b_adapt=2 / b_bias=0 / direct=1 / weightb=1 / open_gop=0 / weightp=2 / keyint=240 / keyint_min=23 / scenecut=40 / intra_refresh=0 / rc_lookahead=0 / rc=crf / mbtree=0 / crf=18.2500 / qcomp=0.70 / qpmin=0 / qpmax=69 / qpstep=4 / vbv_maxrate=62500 / vbv_bufsize=78125 / crf_max=0.0 / nal_hrd=none / filler=0 / ip_ratio=1.40 / pb_ratio=1.20 / aq=3:1.00 / zones=162390,169076,q=30
Language : English
Default : Yes
Forced : No
Matrix coefficients : BT.709
Audio #1
ID : 2
Format : AC-3
Format/Info : Audio Coding 3
Mode extension : CM (complete main)
Format settings, Endianness : Big
Codec ID : A_AC3
Duration : 1h 57mn
Bit rate mode : Constant
Bit rate : 448 Kbps
Channel(s) : 6 channels
Channel positions : Front: L C R, Side: L R, LFE
Sampling rate : 48.0 KHz
Bit depth : 16 bits
Compression mode : Lossy
Stream size : 377 MiB (8%)
Title : Dub BD CEE
Language : Russian
Default : Yes
Forced : No
Audio #2
ID : 3
Format : AC-3
Format/Info : Audio Coding 3
Mode extension : CM (complete main)
Format settings, Endianness : Big
Codec ID : A_AC3
Duration : 1h 57mn
Bit rate mode : Constant
Bit rate : 448 Kbps
Channel(s) : 6 channels
Channel positions : Front: L C R, Side: L R, LFE
Sampling rate : 48.0 KHz
Bit depth : 16 bits
Compression mode : Lossy
Stream size : 377 MiB (8%)
Title : Original
Language : English
Default : No
Forced : No
Text #1
ID : 4
Format : UTF-8
Codec ID : S_TEXT/UTF8
Codec ID/Info : UTF-8 Plain Text
Title : forced
Language : Russian
Default : Yes
Forced : No
Text #2
ID : 5
Format : UTF-8
Codec ID : S_TEXT/UTF8
Codec ID/Info : UTF-8 Plain Text
Title : BD CEE
Language : Russian
Default : No
Forced : No
Text #3
ID : 6
Format : UTF-8
Codec ID : S_TEXT/UTF8
Codec ID/Info : UTF-8 Plain Text
Language : English
Default : No
Forced : No
Menu
00:00:00.000 : :Meeting the Notaire
00:04:26.349 : :Stuck in the Pool
00:07:51.179 : :A Forced Holiday
00:13:02.448 : :72 Hours
00:16:14.265 : :Christie Roberts
00:23:19.064 : :Enjoying Himself
00:28:07.311 : :Memories
00:35:28.543 : :Fanny Chenal
00:39:23.444 : :Uncle Henry's Estate
00:43:26.896 : :France and a Little Car
00:48:38.916 : :Toast of the Town
00:52:35.027 : :Timing
00:56:42.357 : :Main Titles
01:01:45.201 : :Henry's Spirit
01:05:56.744 : :Dinner with the Duflots
01:14:02.146 : :Testing the Vines
01:20:08.387 : :Charlie Arrives
01:25:28.957 : :Two Untrusting Souls
01:31:11.090 : :To Sell or Not to Sell
01:35:20.131 : :Saying Goodbye
01:37:06.237 : :A Fabricated Truth
01:38:53.094 : :The Offer
01:44:08.784 : :Choosing Love
01:51:28.348 : :End Titles

Скриншоты





vs source
=> Новые релизы в AVC | | Заказ рипов в AVC
[Профиль] [ЛС]

Создавать темы 06-Авг-2015 22:48 (спустя 6 месяцев 24 дня)

Топик был перенесен из форума Фильмы до 2014 года в форум Фильмы до 2012 года
sergej644
 
Показать сообщения:    

Текущее время: Сегодня 12:10

Часовой пояс: GMT



Вы не можете начинать темы
Вы не можете отвечать на сообщения
Вы не можете редактировать свои сообщения
Вы не можете удалять свои сообщения
Вы не можете голосовать в опросах
Вы не можете прикреплять файлы к сообщениям
Вы не можете скачивать файлы