Хорошие соседи / Good Neighbours (Джейкоб Тирни / Jacob Tierney) [2010, триллер, драма, детектив, криминал, HDRip] MVO (НТВ+)

 
Автор Сообщение

reversefile ®

Пол:

Стаж: 4 года 5 месяцев

Сообщений: 842

Откуда: ReverseFile.org



Награды: Нет

Торрент-статистика

Создавать темы 13-Авг-2014 10:03

[Цитировать]

Хорошие соседи / Good Neighbours Страна: США
Жанр: триллер, драма, детектив, криминал
Год выпуска: 2010
Продолжительность: 01:38:50
Перевод: Профессиональный (многоголосый, закадровый) НТВ+
Cубтитры: нет
Режиссер: Джейкоб Тирни / Jacob Tierney
В ролях: Джей Барушель, Скотт Спидман, Эмили Хэмпшир, Ксавье Долан, Каньехтио Хорн, Гэри Фармер, Джейкоб Тирни, Анна-Мари Кадьо, Пэт Кили, Натали Джирард
Описание: Действие фильма разворачивается в 1995 году в Канаде, во время второго референдума об отделении провинции Квебек. В разгар зимы серийный убийца вышел на охоту в небольшой окрестности Монреаля Нотр-Дам-де-Грас. Жильцы старого дома должны выяснить, кому они могут доверять и кто же убийца.
Sample | IMDB | КиноПоиск
Качество видео: HDRip
Формат видео: AVI
Видео: XviD, 720x304, 23.976 fps, 1781 kbps, 0.313 bit/pixel
Аудио: AC3, 48 kHz, 2 ch, 192 kbps

Mediainfo

General
Format : AVI
Format/Info : Audio Video Interleave
File size : 1.37 GiB
Duration : 1h 38mn
Overall bit rate : 1 983 Kbps
Writing application : VirtualDubMod 1.5.10.3 (build 2550/release)
Writing library : VirtualDubMod build 2550/release
Video
ID : 0
Format : MPEG-4 Visual
Format profile : Advanced Simple@L5
Format settings, BVOP : 2
Format settings, QPel : No
Format settings, GMC : No warppoints
Format settings, Matrix : Default (H.263)
Codec ID : XVID
Codec ID/Hint : XviD
Duration : 1h 38mn
Bit rate : 1 781 Kbps
Width : 720 pixels
Height : 304 pixels
Display aspect ratio : 2.35:1
Frame rate : 23.976 fps
Color space : YUV
Chroma subsampling : 4:2:0
Bit depth : 8 bits
Scan type : Progressive
Compression mode : Lossy
Bits/(Pixel*Frame) : 0.339
Stream size : 1.23 GiB (90%)
Writing library : XviD 1.2.1 (UTC 2008-12-04)
Audio
ID : 1
Format : AC-3
Format/Info : Audio Coding 3
Mode extension : CM (complete main)
Format settings, Endianness : Big
Codec ID : 2000
Duration : 1h 38mn
Bit rate mode : Constant
Bit rate : 192 Kbps
Channel(s) : 2 channels
Channel positions : Front: L R
Sampling rate : 48.0 KHz
Bit depth : 16 bits
Compression mode : Lossy
Stream size : 136 MiB (10%)
Alignment : Split accross interleaves
Interleave, duration : 42 ms (1.00 video frame)
Interleave, preload duration : 500 ms

Скриншот c названием фильма

Скриншоты

[Профиль] [ЛС]

Создавать темы 06-Авг-2015 23:19 (спустя 11 месяцев 24 дня)

Топик был перенесен из форума Фильмы до 2014 года в форум Фильмы до 2012 года
sergej644
 

Создавать темы 12-Июн-2016 07:54 (спустя 1 год 9 месяцев)

Топик был перенесен из форума Фильмы 2011 года в форум Фильмы 2010 года
Russian Mafia
 
Показать сообщения:    

Текущее время: Сегодня 18:49

Часовой пояс: GMT



Вы не можете начинать темы
Вы не можете отвечать на сообщения
Вы не можете редактировать свои сообщения
Вы не можете удалять свои сообщения
Вы не можете голосовать в опросах
Вы не можете прикреплять файлы к сообщениям
Вы не можете скачивать файлы