Хорошие люди / Good People (2014) WEB-DL 720p | ATV | L2

 
Автор Сообщение

sergej644 ®

Пол:

Стаж: 4 года 11 месяцев

Сообщений: 6046

Откуда: Soviet Union



Награды: Нет

Торрент-статистика

Создавать темы 10-Фев-2015 08:58

[Цитировать]

Хорошие люди / Good People (2014) WEB-DL 720p | ATV | L2
«Бери и беги»
-Год выпуска: 2014
Производство: США / Film 360, Film i Väst , Filmgate Films, Maguire Entertainment, Material Pictures, Millennium Films
Жанр: боевик, триллер, криминал
Режиссер: Генрик Рубен Генц
В ролях: Джеймс Франко, Кейт Хадсон, Омар Си, Том Уилкинсон, Сэм Спруэлл, Анна Фрил, Диармэйд Мурта, Диана Хардкэсл, Ласко Аткинс, Майкл Джибсон
Описание:
Молодая пара Том и Анна Райт попадают в долги из-за семейных проблем. Переживая не лучшие времена, герои триллера «Хорошие люди» вдруг обнаруживают, что жилец в квартире под ними был убит и после себя оставил около 400 тысяч долларов наличными. Перед супругами встает дилемма: взять деньги себе или оставить их в квартире.

Продолжительность: 01:30:13
Перевод: Любительский двухголосый закадровый
Cубтитры: Английские
Качество: WEB-DL [720p]
Видео: MPEG-4 AVC/H.264, 1280x720 (16:9), 4 000 kbps, 23.976 fps
Аудио 1: Русский/Любительский двухголосый закадровый, AAC / 2.0 / 160 Kbps / 48.0 KHz
Аудио 2: Русский/Любительский двухголосый закадровый, AC3 / 2.0 / 192 Kbps / 48.0 KHz
Аудио 3: Английский/Оригинальный, AAC / 2.0 / 160 Kbps / 48.0 KHz
Аудио 4: Английский/Оригинальный, AC3 / 5.1 / 384 Kbps / 48.0 KHz

iTunes Meta Tags

Sort Name: Good People
XID: Apple:vendor_id:2014-462924
Content ID: 899200311
Copyright: © 2014 GOOD PRODUCTIONS, INC.
ScreenWriters: Келли Мастерсон, Marcus Sakey
Producers: Эд Кэйтелл III, Томас Гаммльтофт, Эрик Кренцлер
Director: Генрик Рубен Генц
Cast: James Franco (Tom Reed), Kate Hudson (Anna Reed), Anna Friel (Sarah), Omar Sy, Tom Wilkinson, Sam Spruell (Jack Witkowski), Michael Jibson (Mike Calloway), Oliver Dimsdale, Diana Hardcastle
Rating: R
Long Deion: Главный герой истории — Том Рид, попавший вместе с супругой Анной в долговую яму. Причина финансовых неприятностей — дорогостоящее лечение от бесплодия. А тут внезапно умирает владелец их съёмной квартиры, живший этажом ниже, и перед Томом и Анной встаёт дилемма: стоит ли забрать увесистую пачку банкнот общей суммой 370 тысяч долларов?
Deion: Главный герой истории — Том Рид, попавший вместе с супругой Анной в долговую яму. Причина финансовых неприятностей — дорогостоящее лечение от бесплодия. А тут внезапно умирает владелец их съёмной квартиры, живший этажом ниже
Release Date: 2014-09-26T07:00:00Z
Genre: Thriller
Artist: Henrik Ruben Genz
Name: Хорошие люди
Comments: «Бери и беги»

MediaInfo

General
Complete name                            : C:CREATE264mod1outGood.People.2014.WEB-DL.720p.L2.NNM.m4v
Format                                   : MPEG-4
Codec ID                                 : M4V
File size                                : 3.10 GiB
Duration                                 : 1h 30mn
Overall bit rate mode                    : Variable
Overall bit rate                         : 4 923 Kbps
Movie name                               : Хорошие люди
Performer                                : Henrik Ruben Genz
Genre                                    : Thriller
ContentType                              : Short Film
Deion                              : Главный герой истории — Том Рид, попавший вместе с супругой Анной в долговую яму. Причина финансовых неприятностей — дорогостоящее лечение от бесплодия. А тут внезапно умирает владелец их съёмной квартиры, живший этажом ниже
Recorded date                            : UTC 2014-09-26 07:00:00
Encoded date                             : UTC 2014-09-30 17:40:32
Tagged date                              : UTC 2014-09-30 17:44:46
Copyright                                : © 2014 GOOD PRODUCTIONS, INC.
Cover                                    : Yes
Comment                                  : «Бери и беги»
ContentRating                            : mpaa|R|400|
Title/Sort                               : Good People
LongDeion                          : Главный герой истории — Том Рид, попавший вместе с супругой Анной в долговую яму. Причина финансовых неприятностей — дорогостоящее лечение от бесплодия. А тут внезапно умирает владелец их съёмной квартиры, живший этажом ниже, и перед Томом и Анной встаёт дилемма: стоит ли забрать увесистую пачку банкнот общей суммой 370 тысяч долларов?
HDVideo                                  : Yes
AppleStoreCatalogID                      : 899200311
Vendor                                   : Apple:vendor_id:2014-462924
Video
ID                                       : 1
Format                                   : AVC
Format/Info                              : Advanced Video Codec
Format profile                           : High@L3.1
Format settings, CABAC                   : No
Format settings, ReFrames                : 2 frames
Codec ID                                 : avc1
Codec ID/Info                            : Advanced Video Coding
Duration                                 : 1h 30mn
Bit rate                                 : 4 015 Kbps
Maximum bit rate                         : 13.2 Mbps
Width                                    : 1 280 pixels
Height                                   : 720 pixels
Display aspect ratio                     : 16:9
Frame rate mode                          : Constant
Frame rate                               : 23.976 fps
Color space                              : YUV
Chroma subsampling                       : 4:2:0
Bit depth                                : 8 bits
Scan type                                : Progressive
Bits/(Pixel*Frame)                       : 0.182
Stream size                              : 2.53 GiB (82%)
Language                                 : English
Encoded date                             : UTC 2014-09-30 17:40:32
Tagged date                              : UTC 2014-09-30 17:42:08
Color primaries                          : BT.709
Transfer characteristics                 : BT.709
Matrix coefficients                      : BT.709
Audio #1
ID                                       : 2
Format                                   : AAC
Format/Info                              : Advanced Audio Codec
Format profile                           : LC
Codec ID                                 : 40
Duration                                 : 1h 30mn
Bit rate mode                            : Variable
Bit rate                                 : 160 Kbps
Maximum bit rate                         : 198 Kbps
Channel(s)                               : 2 channels
Channel positions                        : Front: L R
Sampling rate                            : 48.0 KHz
Compression mode                         : Lossy
Stream size                              : 103 MiB (3%)
Language                                 : Russian
Encoded date                             : UTC 2014-09-30 17:30:19
Tagged date                              : UTC 2014-09-30 17:42:08
Audio #2
ID                                       : 3
Format                                   : AC-3
Format/Info                              : Audio Coding 3
Mode extension                           : CM (complete main)
Format settings, Endianness              : Big
Codec ID                                 : ac-3
Duration                                 : 1h 30mn
Bit rate mode                            : Constant
Bit rate                                 : 192 Kbps
Channel(s)                               : 2 channels
Channel positions                        : Front: L R
Sampling rate                            : 48.0 KHz
Bit depth                                : 16 bits
Compression mode                         : Lossy
Stream size                              : 124 MiB (4%)
Language                                 : Russian
Encoded date                             : UTC 2014-09-30 17:41:57
Tagged date                              : UTC 2014-09-30 17:42:08
Audio #3
ID                                       : 4
Format                                   : AAC
Format/Info                              : Advanced Audio Codec
Format profile                           : LC
Codec ID                                 : 40
Duration                                 : 1h 30mn
Bit rate mode                            : Variable
Bit rate                                 : 159 Kbps
Maximum bit rate                         : 197 Kbps
Channel(s)                               : 2 channels
Channel positions                        : Front: L R
Sampling rate                            : 48.0 KHz
Compression mode                         : Lossy
Stream size                              : 103 MiB (3%)
Language                                 : English
Encoded date                             : UTC 2014-09-30 17:37:10
Tagged date                              : UTC 2014-09-30 17:42:08
Audio #4
ID                                       : 5
Format                                   : AC-3
Format/Info                              : Audio Coding 3
Mode extension                           : CM (complete main)
Format settings, Endianness              : Big
Codec ID                                 : ac-3
Duration                                 : 1h 30mn
Bit rate mode                            : Constant
Bit rate                                 : 384 Kbps
Channel(s)                               : 6 channels
Channel positions                        : Front: L C R, Side: L R, LFE
Sampling rate                            : 48.0 KHz
Bit depth                                : 16 bits
Compression mode                         : Lossy
Stream size                              : 248 MiB (8%)
Language                                 : English
Encoded date                             : UTC 2014-09-30 17:42:04
Tagged date                              : UTC 2014-09-30 17:42:08
Text
ID                                       : 6
Format                                   : Timed Text
Muxing mode                              : sbtl
Codec ID                                 : tx3g
Duration                                 : 1h 22mn
Bit rate mode                            : Variable
Bit rate                                 : 75 bps
Stream size                              : 45.7 KiB (0%)
Language                                 : English
Encoded date                             : UTC 2014-09-30 17:42:08
Tagged date                              : UTC 2014-09-30 17:42:08
Menu
ID                                       : 7
Codec ID                                 : text
Duration                                 : 1h 30mn
Encoded date                             : UTC 2014-09-30 17:43:05
Tagged date                              : UTC 2014-09-30 17:43:05
Bit rate mode                            : CBR

Screenshots

[Профиль] [ЛС]
Показать сообщения:    

Текущее время: Сегодня 06:26

Часовой пояс: GMT



Вы не можете начинать темы
Вы не можете отвечать на сообщения
Вы не можете редактировать свои сообщения
Вы не можете удалять свои сообщения
Вы не можете голосовать в опросах
Вы не можете прикреплять файлы к сообщениям
Вы не можете скачивать файлы