Хорошие дети не плачут / Achtste Groepers Huilen Niet (2012) BDRip 720p от AleksSin | P2

 
Автор Сообщение

AleksSin ®

Пол:

Стаж: 5 лет 11 месяцев

Сообщений: 218



Награды: 4 (Подробнее)

Mega Seeder 2 (Количество: 1) Mega Seeder 3 (Количество: 1) Mega Seeder 1 (Количество: 1)
Торрент-статистика

Создавать темы 24-Янв-2016 09:01

[Цитировать]

Хорошие дети не плачут / Achtste Groepers Huilen NietГод выхода: 2012
Жанр: Драма, семейный
Страна: Нидерланды
Студия: Belgische Taxshelter voor Filmfinanciering, Bijker Productions
Продолжительность: 01:39:50
Перевод: Профессиональный (двухголосый закадровый) студия Elrom
Субтитры: нет
Режиссер: Деннис Ботс / Dennis Bots
В ролях: Ханна Оббек, Нильс Веркоохен, Фиона Ливингстон, Брэм Флик, Амин Бельяндоз, Ева Ван-дер-Гюхт, Люк Питерс, Иоханна тер Стехе, Рейну Буссемакер, Крис Комвалиус
О фильме:
Шестиклассница Акки настоящая хулиганка: она любит футбол дерётся с мальчишками и ничего не боится. Ничего, кроме любви. Однако, когда ей ставят диагноз лейкемия, именно любовь дает ей силы бороться с болезнью и принять неизбежное...

Файл
Кодек: х264
Качество: BDRip 720p Исходник: Blu-Ray Remux
Видео: MPEG-4 AVC, 4301 Кбит/с, 1280x536 (2,40:1), 23,976 кадра/сек, 0.261 bit/pixel
Аудио#1: Русский: 48 kHz, AC3, 2/0 (L,R) ch, ~192 kbps avg - Профессиональный (двухголосый закадровый) (студия Elrom)
Аудио#2: Голландский: 48 kHz, AC3, 3/2 (L,C,R,l,r) + LFE ch, ~448.00 kbps avg - оригинал
Семпл

MediaInfo

x264
x264 [info]: frame I:1785 Avg QP:14.92 size:101999
x264 [info]: frame P:32556 Avg QP:16.30 size: 43761
x264 [info]: frame B:109286 Avg QP:17.51 size: 15443
x264 [info]: consecutive B-frames: 2.8% 2.9% 9.3% 26.2% 16.6% 33.1% 4.6% 2.0% 2.5%
Общее
Уникальный идентификатор : 219696926960090089484284233195337520344 (0xA54816CAD0F119B992D2BD2CCA2794D8)
Полное имя : S:ФильмыХорошие дети не плачут. 2012. BDRip 720p (AleksSin).mkv
Формат : Matroska
Версия формата : Version 4 / Version 2
Размер файла : 3,52 Гбайт
Продолжительность : 1 ч. 39 м.
Общий поток : 5042 Кбит/сек
Дата кодирования : UTC 2016-01-24 04:14:46
Программа кодирования : mkvmerge v8.1.0 ('Psychedelic Postcard') 32bit
Библиотека кодирования : libebml v1.3.1 + libmatroska v1.4.2
DURATION : 01:39:50.528000000
NUMBER_OF_FRAMES : 187204
NUMBER_OF_BYTES : 335469568
_STATISTICS_WRITING_APP : mkvmerge v8.1.0 ('Psychedelic Postcard') 32bit
_STATISTICS_WRITING_DATE_UTC : 2016-01-24 04:14:46
_STATISTICS_TAGS : BPS DURATION NUMBER_OF_FRAMES NUMBER_OF_BYTES
Видео
Идентификатор : 1
Формат : AVC
Формат/Информация : Advanced Video Codec
Профиль формата : High@L4.1
Параметр CABAC формата : Да
Параметр ReFrames формата : 9 кадров
Идентификатор кодека : V_MPEG4/ISO/AVC
Продолжительность : 1 ч. 39 м.
Битрейт : 4301 Кбит/сек
Ширина : 1280 пикселей
Высота : 536 пикселей
Соотношение сторон : 2,40:1
Режим частоты кадров : Постоянный
Частота кадров : 23,976 кадра/сек
Цветовое пространство : YUV
Субдискретизация насыщенности : 4:2:0
Битовая глубина : 8 бит
Тип развёртки : Прогрессивная
Бит/(Пиксели*Кадры) : 0.261
Размер потока : 3,00 Гбайт (85%)
Библиотека кодирования : x264 core 148 r2638 7599210
Настройки программы : cabac=1 / ref=9 / deblock=1:-3:-3 / analyse=0x3:0x133 / me=umh / subme=11 / psy=1 / psy_rd=1.05:0.15 / mixed_ref=1 / me_range=32 / chroma_me=1 / trellis=2 / 8x8dct=1 / cqm=0 / deadzone=21,11 / fast_pskip=0 / chroma_qp_offset=-2 / threads=12 / lookahead_threads=2 / sliced_threads=0 / nr=0 / decimate=1 / interlaced=0 / bluray_compat=0 / constrained_intra=0 / bframes=8 / b_pyramid=2 / b_adapt=2 / b_bias=0 / direct=1 / weightb=1 / open_gop=0 / weightp=2 / keyint=250 / keyint_min=23 / scenecut=40 / intra_refresh=0 / rc_lookahead=60 / rc=crf / mbtree=0 / crf=16.2 / qcomp=0.60 / qpmin=0 / qpmax=69 / qpstep=4 / vbv_maxrate=30000 / vbv_bufsize=30000 / crf_max=0.0 / nal_hrd=none / filler=0 / ip_ratio=1.40 / pb_ratio=1.30 / aq=3:0.95
Default : Да
Forced : Нет
Аудио #1
Идентификатор : 2
Формат : AC-3
Формат/Информация : Audio Coding 3
Расширение режима : CM (complete main)
Параметр Endianness формата : Big
Идентификатор кодека : A_AC3
Продолжительность : 1 ч. 39 м.
Вид битрейта : Постоянный
Битрейт : 192 Кбит/сек
Каналы : 2 канала
Расположение каналов : Front: L R
Частота : 48,0 КГц
Битовая глубина : 16 бит
Метод сжатия : С потерями
Размер потока : 137 Мбайт (4%)
Default : Да
Forced : Нет
Аудио #2
Идентификатор : 3
Формат : AC-3
Формат/Информация : Audio Coding 3
Расширение режима : CM (complete main)
Параметр Endianness формата : Big
Идентификатор кодека : A_AC3
Продолжительность : 1 ч. 39 м.
Вид битрейта : Постоянный
Битрейт : 448 Кбит/сек
Каналы : 6 каналов
Расположение каналов : Front: L C R, Side: L R, LFE
Частота : 48,0 КГц
Битовая глубина : 16 бит
Метод сжатия : С потерями
Размер потока : 320 Мбайт (9%)
Default : Нет
Forced : Нет
Меню
00:00:00.000 : en:
00:05:00.000 : en:
00:10:00.000 : en:
00:15:00.000 : en:
00:20:00.000 : en:
00:25:00.000 : en:
00:30:00.000 : en:
00:35:00.000 : en:
00:40:00.000 : en:
00:45:00.000 : en:
00:50:00.000 : en:
00:55:00.000 : en:
01:00:00.000 : en:

Скриншоты

[Профиль] [ЛС]
Показать сообщения:    

Текущее время: Сегодня 09:59

Часовой пояс: GMT



Вы не можете начинать темы
Вы не можете отвечать на сообщения
Вы не можете редактировать свои сообщения
Вы не можете удалять свои сообщения
Вы не можете голосовать в опросах
Вы не можете прикреплять файлы к сообщениям
Вы не можете скачивать файлы