Холодное танго (Павел Чухрай) [2017 г., мелодрама, военный, драма, история, WEB-DLRip-AVC] [iTunes]

 
Автор Сообщение

Bathory ®

Пол:

Стаж: 1 год 5 месяцев

Сообщений: 281



Награды: 3 (Подробнее)

Girls (Количество: 1) Друг (Количество: 1) За внесенный вклад в развитие сайта (Количество: 1)
Торрент-статистика

Создавать темы 27-Июл-2017 14:57

[Цитировать]

Холодное танго- Информация о фильме
Название: Холодное танго
Год выхода: 2017
Жанр: мелодрама, военный, драма, история
Режиссер: Павел Чухрай
В ролях: Юлия Пересильд, Риналь Мухаметов, Карина Каграманян, Сергей Гармаш, Елисей Никандров, Ася Громова, Моника Санторо, Валерия Ткаченко, Андрюс Бялобжескис, Мария Малиновская
О фильме:
Он чудом избежал смерти, чтобы вернуться в дом, где родился. В дом, в котором теперь живет любовь всей его жизни. Но надежда на счастье оборачивается страшным открытием. Его возлюбленная – дочь его врага.

Страна: Россия
Студия: Кинокомпания «Слон»
Продолжительность: 01:42:23
Язык: русский [iTunes]
Файл
Кодек: AVC
Качество: WEB-DLRip-AVC
Видео: 768x416, 944 kbps, 25 fps, 0,118 Bits/(Pixel*Frame)
Звук: AAC, 48 kHz, 2 ch, 72 kbps
Субтитры: Нет

MI

Общее
Unique ID : 195014442748271053252469463575746994107 (0x92B66A5D66B232138AAA3D242FF25FBB)
Complete name : D:\Kholodnoe.tango.2017.WEB-DLRip-AVC.MegaPeer.mkv
Format : Matroska
Format version : Version 4 / Version 2
File size : 745 Мбайт
Duration : 1 ч. 42 м.
Overall bit rate : 1018 Кбит/сек
Encoded date : UTC 2017-07-27 14:28:32
Writing application : mkvmerge v13.0.0 ('The Juggler') 64bit
Writing library : libebml v1.3.4 + libmatroska v1.4.5
Видео
ID : 1
Format : AVC
Format/Info : Advanced Video Codec
Format profile : High@L4.1
Format settings, CABAC : Да
Format settings, ReFrames : 10 кадров
Codec ID : V_MPEG4/ISO/AVC
Duration : 1 ч. 42 м.
Bit rate : 944 Кбит/сек
Width : 768 пикселей
Height : 416 пикселей
Display aspect ratio : 1,85:1
Frame rate mode : Постоянный
Frame rate : 25,000 кадров/сек
Color space : YUV
Chroma subsampling : 4:2:0
Bit depth : 8 бит
Scan type : Прогрессивная
Bits/(Pixel*Frame) : 0.118
Stream size : 691 Мбайт (93%)
Writing library : x264 core 148 r2744 b97ae06
Encoding settings : cabac=1 / ref=10 / deblock=1:-3:-3 / analyse=0x3:0x133 / me=umh / subme=11 / psy=1 / psy_rd=1.00:0.10 / mixed_ref=1 / me_range=32 / chroma_me=1 / trellis=2 / 8x8dct=1 / cqm=0 / deadzone=21,11 / fast_pskip=0 / chroma_qp_offset=-3 / threads=12 / lookahead_threads=3 / sliced_threads=0 / nr=0 / decimate=1 / interlaced=0 / bluray_compat=0 / constrained_intra=0 / bframes=12 / b_pyramid=2 / b_adapt=2 / b_bias=0 / direct=3 / weightb=1 / open_gop=0 / weightp=2 / keyint=240 / keyint_min=23 / scenecut=40 / intra_refresh=0 / rc_lookahead=60 / rc=2pass / mbtree=1 / bitrate=944 / ratetol=1.0 / qcomp=0.60 / qpmin=0 / qpmax=69 / qpstep=4 / cplxblur=20.0 / qblur=0.5 / ip_ratio=1.40 / aq=1:1.00
Default : Да
Forced : Нет
Аудио
ID : 2
Format : AAC
Format/Info : Advanced Audio Codec
Format profile : LC
Codec ID : A_AAC
Duration : 1 ч. 42 м.
Bit rate : 72,0 Кбит/сек
Channel(s) : 2 канала
Channel positions : Front: L R
Sampling rate : 48,0 КГц
Frame rate : 46,875 кадров/сек (1024 spf)
Compression mode : С потерями
Delay relative to video : 9 мс.
Stream size : 52,7 Мбайт (7%)
Default : Да
Forced : Нет

Скриншоты

Релиз:
[Профиль] [ЛС]
Кто просматривает тему:

Форум Тема Автор Размер
Разная литература Алексеев Д. - Холодное оружие. Иллюстрированный путеводитель (2014) PDF достали все 28 MB
Отечественные мультфильмы Буроба (Оксана Холодова) [2012, мультфильм, DVDScreener] TorrentFilm 153 MB
Фантастика и фэнтези Васильев Андрей - Файролл 3. Край холодных ветров (2016) MP3 Swager 257 MB
Фильмы (DVD 5/9) Вера Холодная: Дети века / Миражи / Жизнь за жизнь / Молчи, грусть, молчи (Евгений Бауэр / Петр Чардынин) [1915 / 1918, Россия, Драма, DVD5] TorrentFilm 4.02 GB
Зарубежные мультфильмы Вернер - Холодный, как лед! / Werner - Eiskalt! (2011) HDRip | L BOSS 1.37 GB
Разная литература Виктор Вериютин - Энциклопедия холодного оружия России и СССР [2011, PDF] достали все 204 MB
Разное Владимир Миловидов - "О заточке клинков" [2006, Холодное оружие, DVDRip, RUS] (Видеоурок) Garik014 400 MB
Отечественные мультфильмы День медведя (Оксана Холодова) [2014, мультфильм, WEBRip-AVC] TorrentFilm 163 MB
Показать сообщения:    

Текущее время: Сегодня 05:54

Часовой пояс: GMT



Вы не можете начинать темы
Вы не можете отвечать на сообщения
Вы не можете редактировать свои сообщения
Вы не можете удалять свои сообщения
Вы не можете голосовать в опросах
Вы не можете прикреплять файлы к сообщениям
Вы не можете скачивать файлы