Холодная война / Cold War (2012) BDRip 720p | L2, L1

 
Автор Сообщение

достали все ®

Пол:

Стаж: 1 год 8 месяцев

Сообщений: 6517



Награды: 12 (Подробнее)

Mega Seeder 2 (Количество: 1) Top Releaser 2 (Количество: 1) За внесенный вклад в развитие сайта (Количество: 1)
Торрент-статистика

Создавать темы 08-Июл-2016 14:44

[Цитировать]

Холодная война / Cold War / Hon zin
Страна: Гонконг
Производство: Edko Films, Irresistible Delta, Sil-Metropole Organisation, Stars Shine Blue Sea Productions
Год выпуска: 2012
Жанр: боевик, криминал, детектив
Продолжительность: 01:41:49
Режиссеры: Лок Мэн Люн, Ким-Чин Люк
Авторы сценария: Лок Мэн Люн, Ким-Чин Люк
В ролях: Аарон Квок, Тони Люн Ка-фай, Энди Лау, Аариф Ли, Чарли Ен, Гордон Лам, Кар Лок Чин, Энди Он, Теренс Йин, Эдди Пэн
Описание: У гонконгской полиции дел невпроворот — в Монгкоке произошел сильный взрыв, а тем временем с радаров исчез один из полицейских патрульных экипажей, причем, среди пропавших сын полицейского начальника, мистера Ли. Ли называет операцию по его поиску «Холодная война» и бросает на нее все полицейские силы, что заставляет офицера Шона Лау сместить его с поста руководителя операцией. Тем не менее, поймать похитителей не удается — деньги за выкуп пропали, хорошо хоть полицейские вернулись домой. Но спустя какое-то время следователи из отдела внутренних расследований начинают подозревать, что вся эта операция была срежиссирована кем-то из служителей закона…

Перевод: Любительский (двухголосый) | GREEN TEA + Любительский (одноголосый) | den904
Субтитры: русские, английские-Качество: BDRip 720p
Формат: МКV
Видео кодек: AVC
Аудио кодек: АС3 | DTS
Видео: 1280x534 (16:9), 24.000 fps, MPEG-4 AVC ~4 500 kbps avg
Аудио №1: 48.0 kHz, AC3 Dolby Digital, 3/2 (L,C,R,l,r) + LFE ch, ~448 kbps | GREEN TEA
Аудио №2: 48.0 kHz, AC3 Dolby Digital, 2/0 (L,R) ch, ~192 kbps | den904
Аудио №3: 48.0 kHz, Digital Theater Systems, 3/2 (L,C,R,l,r) + LFE ch, ~1509 kbps | CHI / Cantonese
Аудио №4: 48.0 kHz, AC3 Dolby Digital, 2/0 (L,R) ch, ~384 kbps | CHI / Mandarin
Формат субтитров: UTF-8 Plain Text
Дата премьеры (мир): 2 октября 2012

Релиз от:

Media Info

Уникальный идентификатор : 207921674276944318928950088188937895415 (0x9C6C4202F67DE638AD4A00C8342FFDF7)
Полное имя : Cold.War.2012.BDRip.720p_by_vedigo.mkv
Формат : Matroska
Версия формата : Version 4 / Version 2
Размер файла : 5,00 Гбайт
Продолжительность : 1 ч. 41 м.
Общий поток : 7033 Кбит/сек
Название фильма : Cold.War.2012.BDRip.720p_by_vedigo
Дата кодирования : UTC 2016-07-07 23:20:32
Программа кодирования : mkvmerge v9.2.0 ('Photograph') 64bit
Библиотека кодирования : libebml v1.3.3 + libmatroska v1.4.4
Видео
Идентификатор : 1
Формат : AVC
Формат/Информация : Advanced Video Codec
Профиль формата : High@L4.1
Параметр CABAC формата : Да
Параметр ReFrames формата : 12 кадров
Идентификатор кодека : V_MPEG4/ISO/AVC
Продолжительность : 1 ч. 41 м.
Битрейт : 4500 Кбит/сек
Ширина : 1280 пикселей
Высота : 534 пикселя
Соотношение сторон : 2,40:1
Режим частоты кадров : Постоянный
Частота кадров : 24,000 кадра/сек
Цветовое пространство : YUV
Субдискретизация насыщенности : 4:2:0
Битовая глубина : 8 бит
Тип развёртки : Прогрессивная
Бит/(Пиксели*Кадры) : 0.274
Размер потока : 3,20 Гбайт (64%)
Заголовок : Cold.War.2012.BDRip.720p_by_vedigo
Библиотека кодирования : x264 core 148 r2692 64f4e24
Настройки программы : cabac=1 / ref=12 / deblock=1:-3:-3 / analyse=0x3:0x133 / me=umh / subme=11 / psy=1 / psy_rd=1.00:0.10 / mixed_ref=1 / me_range=48 / chroma_me=1 / trellis=2 / 8x8dct=1 / cqm=0 / deadzone=21,11 / fast_pskip=0 / chroma_qp_offset=-3 / threads=12 / lookahead_threads=3 / sliced_threads=0 / nr=0 / decimate=1 / interlaced=0 / bluray_compat=0 / constrained_intra=0 / bframes=12 / b_pyramid=2 / b_adapt=2 / b_bias=0 / direct=3 / weightb=1 / open_gop=0 / weightp=2 / keyint=250 / keyint_min=23 / scenecut=40 / intra_refresh=0 / rc_lookahead=40 / rc=2pass / mbtree=0 / bitrate=4500 / ratetol=1.0 / qcomp=0.60 / qpmin=0 / qpmax=69 / qpstep=4 / cplxblur=20.0 / qblur=0.5 / vbv_maxrate=50000 / vbv_bufsize=62500 / nal_hrd=none / filler=0 / ip_ratio=1.40 / pb_ratio=1.30 / aq=1:0.90
Default : Да
Forced : Нет
Аудио #1
Идентификатор : 2
Формат : AC-3
Формат/Информация : Audio Coding 3
Расширение режима : CM (complete main)
Параметр Endianness формата : Big
Идентификатор кодека : A_AC3
Продолжительность : 1 ч. 41 м.
Вид битрейта : Постоянный
Битрейт : 448 Кбит/сек
Каналы : 6 каналов
Расположение каналов : Front: L C R, Side: L R, LFE
Частота : 48,0 КГц
Частота кадров : 31,250 кадров/сек (1536 spf)
Метод сжатия : С потерями
Размер потока : 326 Мбайт (6%)
Заголовок : DVO @ GREEN TEA
Язык : Russian
Default : Да
Forced : Нет
Аудио #2
Идентификатор : 3
Формат : AC-3
Формат/Информация : Audio Coding 3
Расширение режима : CM (complete main)
Параметр Endianness формата : Big
Идентификатор кодека : A_AC3
Продолжительность : 1 ч. 41 м.
Вид битрейта : Постоянный
Битрейт : 192 Кбит/сек
Каналы : 2 канала
Расположение каналов : Front: L R
Частота : 48,0 КГц
Частота кадров : 31,250 кадров/сек (1536 spf)
Метод сжатия : С потерями
Размер потока : 140 Мбайт (3%)
Заголовок : VO @ den904
Язык : Russian
Default : Нет
Forced : Нет
Аудио #3
Идентификатор : 4
Формат : DTS
Формат/Информация : Digital Theater Systems
Режим : 16
Параметр Endianness формата : Big
Идентификатор кодека : A_DTS
Продолжительность : 1 ч. 41 м.
Вид битрейта : Постоянный
Битрейт : 1509 Кбит/сек
Каналы : 6 каналов
Расположение каналов : Front: L C R, Side: L R, LFE
Частота : 48,0 КГц
Частота кадров : 93,750 кадра/сек (512 spf)
Битовая глубина : 16 бит
Метод сжатия : С потерями
Размер потока : 1,07 Гбайт (21%)
Заголовок : Cantonese
Язык : Chinese
Default : Нет
Forced : Нет
Аудио #4
Идентификатор : 5
Формат : AC-3
Формат/Информация : Audio Coding 3
Расширение режима : CM (complete main)
Параметр Endianness формата : Big
Идентификатор кодека : A_AC3
Продолжительность : 1 ч. 41 м.
Вид битрейта : Постоянный
Битрейт : 384 Кбит/сек
Каналы : 2 канала
Расположение каналов : Front: L R
Частота : 48,0 КГц
Частота кадров : 31,250 кадров/сек (1536 spf)
Метод сжатия : С потерями
Размер потока : 280 Мбайт (5%)
Заголовок : Mandarin
Язык : Chinese
Default : Нет
Forced : Нет
Текст #1
Идентификатор : 6
Формат : UTF-8
Идентификатор кодека : S_TEXT/UTF8
Идентификатор кодека/Информация : UTF-8 Plain Text
Продолжительность : 1 ч. 40 м.
Битрейт : 114 бит/сек
Count of elements : 1366
Размер потока : 84,6 Кбайт (0%)
Заголовок : Subtitle rus @ Sephiroth
Язык : Russian
Default : Нет
Forced : Нет
Текст #2
Идентификатор : 7
Формат : UTF-8
Идентификатор кодека : S_TEXT/UTF8
Идентификатор кодека/Информация : UTF-8 Plain Text
Продолжительность : 1 ч. 37 м.
Битрейт : 62 бит/сек
Count of elements : 1372
Размер потока : 44,7 Кбайт (0%)
Заголовок : Subtitle eng
Язык : English
Default : Нет
Forced : Нет
Меню
00:00:00.000 : en:00:00:00.000
00:06:01.417 : en:00:06:01.417
00:16:52.000 : en:00:16:52.000
00:25:14.750 : en:00:25:14.750
00:34:33.667 : en:00:34:33.667
00:42:19.583 : en:00:42:19.583
00:50:35.958 : en:00:50:35.958
00:58:23.625 : en:00:58:23.625
01:07:48.500 : en:01:07:48.500
01:17:56.958 : en:01:17:56.958
01:27:57.792 : en:01:27:57.792
01:33:34.375 : en:01:33:34.375

Скриншоты

[Профиль] [ЛС]
Кто просматривает тему:

Форум Тема Автор Размер
Разная литература Алексеев Д. - Холодное оружие. Иллюстрированный путеводитель (2014) PDF достали все 28 MB
Отечественные мультфильмы Буроба (Оксана Холодова) [2012, мультфильм, DVDScreener] TorrentFilm 153 MB
Фантастика и фэнтези Васильев Андрей - Файролл 3. Край холодных ветров (2016) MP3 Swager 257 MB
Фильмы (DVD 5/9) Вера Холодная: Дети века / Миражи / Жизнь за жизнь / Молчи, грусть, молчи (Евгений Бауэр / Петр Чардынин) [1915 / 1918, Россия, Драма, DVD5] TorrentFilm 4.02 GB
Зарубежные мультфильмы Вернер - Холодный, как лед! / Werner - Eiskalt! (2011) HDRip | L BOSS 1.37 GB
Разная литература Виктор Вериютин - Энциклопедия холодного оружия России и СССР [2011, PDF] достали все 204 MB
Разное Владимир Миловидов - "О заточке клинков" [2006, Холодное оружие, DVDRip, RUS] (Видеоурок) Garik014 400 MB
Отечественные мультфильмы День медведя (Оксана Холодова) [2014, мультфильм, WEBRip-AVC] TorrentFilm 163 MB
Показать сообщения:    

Текущее время: Сегодня 07:06

Часовой пояс: GMT



Вы не можете начинать темы
Вы не можете отвечать на сообщения
Вы не можете редактировать свои сообщения
Вы не можете удалять свои сообщения
Вы не можете голосовать в опросах
Вы не можете прикреплять файлы к сообщениям
Вы не можете скачивать файлы