Хозяин (Иван Щёголев) [2010, Россия, мелодрама, криминал, DVD5]

 
Автор Сообщение

TorrentFilm ®

Пол:

Стаж: 2 года

Сообщений: 7741



Награды: Нет

Торрент-статистика

Создавать темы 02-Янв-2016 00:01

[Цитировать]

Хозяин-
Страна:
Россия
Студия: Авиатор Продакшн
Жанр: мелодрама, криминал
Год выпуска: 2010
Продолжительность: 01:36:04-Перевод: Не требуется
Cубтитры: нет-Режиссер: Иван Щёголев
В ролях: Юлия Ромашина, Петр Баранчеев, Алексей Бояджи, Андрей Зибров, Анна Антоненко, Виктор Лакирев, Иван Щёголев, Валерий Скорокосов, Игорь Гузун, Валентина Емельянова-Описание: Бывший военный Костя Жаров работает охранником в крупной строительной компании, руководитель которой — Карташов — обманным путем скупает земли у деревенских жителей под застройку этой местностью элитными коттеджами. Сроки поджимают, и какими средствами земля станет его — не важно. Жаров случайно узнает, что похожая ситуация происходит с его родным поселком Солнечное, где живут его отец и мать. Там практически все земли проданы за бесценок, только его родители и еще несколько человек не подписывают документы об отчуждении…Когда маленькая деревня мешает большому бизнесу, сможет ли отставной офицер отстоять свой дом, защитить родную землю и показать, кто здесь настоящий хозяин?-Доп. информация: -Бонусы: отсутствуют
Меню: на русском языке, статичное, озвученное-Тип релиза: DVD5
Контейнер: DVD-Video

Видео:
PAL ;16:9; (720x576@1024x576) ;VBR ;Auto Letterboxed; 25,000 fps; 5098 kbps
Аудио 1: Russian (AC3, 2 ch, 192 kbps)
Аудио 2: Russian (AC3, 2 ch, 448 kbps)

MediaInfo

Общее
Полное имя : F:Xozyain.2010.O.DVD5\VIDEO_TS\VTS_01_2.VOB
Формат : MPEG-PS
Размер файла : 1024 Мбайт
Продолжительность : 24 м.
Общий поток : 5855 Кбит/сек
Видео
Идентификатор : 224 (0xE0)
Формат : MPEG Video
Версия формата : Version 2
Профиль формата : Main@Main
Параметр BVOP формата : Да
Параметр матрицы формата : По умолчанию
Продолжительность : 24 м.
Вид битрейта : Переменный
Битрейт : 5098 Кбит/сек
Номинальный битрейт : 8100 Кбит/сек
Ширина : 720 пикс.
Высота : 576 пикс.
Соотношение сторон : 16:9
Частота кадров : 25,000 кадр/сек
Стандарт вещания : PAL
Цветовое пространство : YUV
Подвыборка цветности : 4:2:0
Битовая глубина : 8 бит
Тип развёртки : Прогрессивная
Метод сжатия : С потерями
Бит/(Пиксели*Кадры) : 0.492
Размер потока : 892 Мбайт (87%)
Аудио #1
Идентификатор : 189 (0xBD)-128 (0x80)
Формат : AC-3
Формат/Информация : Audio Coding 3
Расширение режима : CM (complete main)
Режим смешивания : DVD-Video
Продолжительность : 24 м.
Вид битрейта : Постоянный
Битрейт : 192 Кбит/сек
Каналы : 2 канала
Расположение каналов : Front: L R
Частота : 48,0 КГц
Битовая глубина : 16 бит
Метод сжатия : С потерями
Задержка видео : -416 мс.
Размер потока : 33,6 Мбайт (3%)
Аудио #2
Идентификатор : 189 (0xBD)-129 (0x81)
Формат : AC-3
Формат/Информация : Audio Coding 3
Расширение режима : CM (complete main)
Режим смешивания : DVD-Video
Продолжительность : 24 м.
Вид битрейта : Постоянный
Битрейт : 448 Кбит/сек
Каналы : 6 каналов
Расположение каналов : Front: L C R, Side: L R, LFE
Частота : 48,0 КГц
Битовая глубина : 16 бит
Метод сжатия : С потерями
Задержка видео : -512 мс.
Размер потока : 78,4 Мбайт (8%)
Меню

DVDInfo

Title: Xozyain.2010.O.DVD5
Size: 3.88 Gb ( 4 065 210,00 KBytes ) - DVD-5
Enabled regions: 1, 2, 3, 4, 5, 6, 7, 8
VTS_01 :
Play Length: 01:36:04
Video: PAL 16:9 (720x576) VBR, Auto Letterboxed
Audio:
English (Dolby AC3, 2 ch)
English (Dolby AC3, 6 ch)
* Menus Information *
VIDEO_TS Menu
Video:
PAL 16:9 (720x576) VBR
Auto Letterboxed
English Language Unit :
Title Menu
VTS_01 Menu
Video:
PAL 16:9 (720x576) VBR
Auto Letterboxed
Audio:
Not specified (Dolby AC3, 2 ch)
English Language Unit :
Root Menu

Скриншоты меню

Скриншоты

[Профиль] [ЛС]
Показать сообщения:    

Текущее время: Сегодня 04:16

Часовой пояс: GMT



Вы не можете начинать темы
Вы не можете отвечать на сообщения
Вы не можете редактировать свои сообщения
Вы не можете удалять свои сообщения
Вы не можете голосовать в опросах
Вы не можете прикреплять файлы к сообщениям
Вы не можете скачивать файлы