Ходячие мертвецы / The Walking Dead [S01-S04] ( 2010-2014) WEB-DLRip, HDTVRip, ВDRip-AVC 1080p | Fox Crime, LostFilm

 
Автор Сообщение

Белочка ®

Пол:

Стаж: 5 лет 1 месяц

Сообщений: 2089



Награды: 1 (Подробнее)

Girls (Количество: 1)
Торрент-статистика

Создавать темы 17-Ноя-2014 22:07

[Цитировать]

-- --Ходячие мертвецы / The Walking Dead ----Год выпуска: 2010-2014
Выпущено: США ,AMC Studios, Circle of Confusion, Darkwoods Productions, Valhalla Motion Pictures
Жанр: Ужасы, триллер, фантастика
Продолжительность:1-2~01:07:06,44~ 00:44:00
Автор идеи: Эрнест Р. Дикерсон, Гвинет Хордер-Пэйтон
Сезон: 1-4
Серия: 1- 51
Количество серий в сезоне: 51
Озвучка:Сезон:1Профессиональная многоголосая закадровая[LostFilm.TV], Сезоны: 2-4Профессиональная многоголосая закадровая[Fox Crime]
Субтитры: Нет--Сайт сериала:
--Режиссер: Дарабонт, Эрнест Р. Дикерсон, Гай Ферленд и др.--В ролях: Джон Бернтал, Джеффри ДеМунн, Лори Холден, Эндрю Линкольн, Деррик МакЛеод, Адам Минарович, Чендлер Риггз, Майкл Рукер, Сара Уэйн Кэллис и др.--
После страшной болезни, превратившей жителей Земли в зомби, небольшая группа пока еще живых людей изо дня в день борется за выживание в новом, враждебном мире. Под предводительством бывшего полицейского Рика они ищут безопасное для жизни место, но зомби — это не самое страшное, что их ждет, основная опасность — это жестокое внутреннее соперничество среди выживших.--

ТЕХ. ДАННЫЕ:

Качество 1 сезона:]BDRip-AVC 1080p
Формат: MPEG-4
Видео кодек: H264
Видео: 5715Кбит/сек,1920х1080(16.9),в 25.000кадр/сек,AVC(Baseline@L4.0)(1Ref Frames)
Аудио кодек: AAC
Аудио Russian Dolby Digital 5.1:489Кбит/сек,48.0КГц,6каналов,AAC,(Version4)(LC)-Качество 2 сезона:]HDTVRip-AVC 1080p
Формат: MPEG-4
Видео кодек: H264
Видео: 5943Кбит/сек,1920х1080(16.9),в 25.000кадр/сек,AVC(Baseline@L4.0)(1Ref Frames)
Аудио кодек: AAC
Аудио Russian Dolby Digital 5.1:495Кбит/сек,48.0КГц,6каналов,AAC,(Version4)(LC)-Качество 3 сезона:WEB-DLRip-AVC 1080p
Формат: MPEG-4
Видео кодек: H264
Видео: 5710Кбит/сек,1920х1080(16.9),в 25.000кадр/сек,AVC(Baseline@L4.0)(1Ref Frames)
Аудио кодек: AAC
Аудио Russian Dolby Digital 5.1:491Кбит/сек,48.0КГц,6каналов,AAC,(Version4)(LC)-Качество 4 сезона: WEB-DLRip-AVC 1080p
Формат: MPEG-4
Видео кодек: H264
Видео: 5182Кбит/сек,1920х1080(16.9),в 25.000кадр/сек,AVC(Baseline@L4.0)(1Ref Frames)
Аудио кодек: AAC
Аудио Russian Dolby Digital 5.1:288Кбит/сек,44.1КГц,6каналов,AAC,(Version4)(LC)
--

Доп. информация:

Звуковая дорожка сделана путем наложения чистого голоса озвучивателей на центральный канал оригинальной дорожки. Качество идентично звуковой дорожке.
--

Список эпизодов 1 сезона


01. Дни, ушедшие навсегда / Days Gone Bye
02. Кишки / Guts
03. Скажи это лягушкам / Tell It to the Frogs
04. Братаны / Vatos
05. Лесной пожар / Wildfire
06. ТС-19 / TS-19
--

Список эпизодов 2 сезона


01. Что ждет впереди / What Lies Ahead
02. Кровопускание / Bloodletting
03. Прибереги последний / Save the Last One
04. Роза Чероки / Cherokee Rose
05. Чупакабра / Chupacabra
06. Тайны / Secrets
07. Почти мертв / Pretty Much Dead Already
08. Небраска / Nebraska
09. Палец на курке / Triggerfinger
10. Еще 18 миль / 18 Miles Out
11. Судья, присяжный и палач / Judge, Jury, Executioner
12. Новые ангелы / Better Angels
13. Около умирающего огня / Beside the Dying Fir
--

Список эпизодов 3 сезона

01. Семена / Seed
02. Больной / Sick
03. Пройдемся / Walk with Me
04. Убийца внутри / Killer Within
05. Только скажи / Say the Word
06. Затравленные / Hounded
07. Когда мертвые стучатся / When the Dead Come Knocking
08. Перемотка / Rewind
09. Король самоубийства / The Suicide King
10. Дом / Home
11. Я не Иуда / I Ain't a Judas
12. Очищенный / Clear
13. Стрела на дверном косяке / Arrow on the Doorpost
14. Добыча / Prey
15. Эта горестная жизнь / This Sorrowful Life
16. Добро пожаловать в могилы / «Welcome to the Tombs
--

Список эпизодов 4 сезона

01. 30 дней без происшествий / 30 Days Without an Accident
02. Зараженный / Infected
03. Изоляция / Isolation
04. Безразличие / Indifference
05. Погребение / Internment
06. Восхождение / Rise
07. Мёртвый груз / Dead Weight
08. Зайдя слишком далеко / Too Far Gone
09. Кем мы стали / Who have we become
10. Заключенный / Inmates
11. Требование / Claimed
12. Безмолвные / Still
13. Одиночка / Alone
14. Роща / The Grove
15. Мы / Us
16. А / А
--

MediaInfo 1 сезона

General
Полное имя : D:Новая папкаThe_Walking_Dead_S03_-_S04_RUS[Fox_Crime]_DD5.1_x264_Nikolai.Baranov_WEB-DLRip-AVC_(1080p)S01The_Walking_Dead_2010_S01E01_rus[LostFilm.TV]_DD5.1_x264_Nikolai.Baranov_ВDRip-AVC_(1080p).mp4
Формат : MPEG-4
Профиль формата : Base Media
Идентификатор кодека : isom
Размер файла : 2.91 GiB
Продолжительность : 1h 7mn
Режим общего битрейта : Variable
Общий поток : 6 205 Kbps
Название фильма : Rip by mitrian (NOLIMITS-TEAM.RU)
Дата кодирования : UTC 2014-02-17 18:50:11
Дата пометки : UTC 2014-02-17 18:50:11
Программа кодирования : Lavf51.12.1
Video
Идентификатор : 1
Формат : AVC
Формат/Информация : Advanced Video Codec
Профиль формата : Baseline@L4.0
Параметр CABAC формата : No
Параметр ReFrames формата : 1 frame
Параметр GOP формата : M=1, N=12
Идентификатор кодека : avc1
Идентификатор кодека/Информация : Advanced Video Coding
Продолжительность : 1h 7mn
Вид битрейта : Variable
Битрейт : 5 715 Kbps
Максимальный битрейт : 8 250 Kbps
Ширина : 1 920 pixels
Высота : 1 080 pixels
Соотношение сторон : 16:9
Режим частоты кадров : Constant
Частота кадров : 25.000 fps
Частота кадров в оригинале : 24.000 fps
Цветовое пространство : YUV
Субдискретизация насыщенности : 4:2:0
Битовая глубина : 8 bits
Тип развёртки : Progressive
Бит/(Пиксели*Кадры) : 0.110
Размер потока : 2.68 GiB (92%)
Язык : English
Дата кодирования : UTC 2014-02-17 18:50:11
Дата пометки : UTC 2014-02-17 18:50:11
Audio
Идентификатор : 2
Формат : AAC
Формат/Информация : Advanced Audio Codec
Профиль формата : LC
Идентификатор кодека : 40
Продолжительность : 1h 7mn
Вид битрейта : Variable
Битрейт : 489 Kbps
Каналы : 6 channels
Расположение каналов : Front: L C R, Side: L R, LFE
Частота : 48.0 KHz
Метод сжатия : Lossy
Размер потока : 235 MiB (8%)
Дата кодирования : UTC 2014-02-17 18:50:11
Дата пометки : UTC 2014-02-17 18:50:11
--

MediaInfo 2 сезона

General
Полное имя : D:Новая папкаThe_Walking_Dead_S01_-_S04_RUS[Fox_Crime_LostFilm]_DD5.1_x264_Nikolai.Baranov_WEB-DLRip_HDTVRip_ВDRip-AVC_(1080p)S02The_Walking_Dead_2011_S02E01_rus[Fox_Crime]_DD5.1_x264_Nikolai.Baranov_HDTVRip-AVC_(1080p).mp4
Формат : MPEG-4
Профиль формата : Base Media
Идентификатор кодека : isom
Размер файла : 2.82 GiB
Продолжительность : 1h 2mn
Режим общего битрейта : Variable
Общий поток : 6 443 Kbps
Название фильма : The WalkiСЏg Dead [Season 2] (2011) - Release for HDCLUB
Дата кодирования : UTC 2014-02-19 17:12:21
Дата пометки : UTC 2014-02-19 17:12:21
Программа кодирования : Lavf51.12.1
Video
Идентификатор : 1
Формат : AVC
Формат/Информация : Advanced Video Codec
Профиль формата : Baseline@L4.0
Параметр CABAC формата : No
Параметр ReFrames формата : 1 frame
Параметр GOP формата : M=1, N=12
Идентификатор кодека : avc1
Идентификатор кодека/Информация : Advanced Video Coding
Продолжительность : 1h 2mn
Битрейт : 5 943 Kbps
Ширина : 1 920 pixels
Высота : 1 080 pixels
Соотношение сторон : 16:9
Режим частоты кадров : Constant
Частота кадров : 25.000 fps
Цветовое пространство : YUV
Субдискретизация насыщенности : 4:2:0
Битовая глубина : 8 bits
Тип развёртки : Progressive
Бит/(Пиксели*Кадры) : 0.115
Размер потока : 2.61 GiB (92%)
Язык : English
Дата кодирования : UTC 2014-02-19 17:12:21
Дата пометки : UTC 2014-02-19 17:12:21
Audio
Идентификатор : 2
Формат : AAC
Формат/Информация : Advanced Audio Codec
Профиль формата : LC
Идентификатор кодека : 40
Продолжительность : 1h 2mn
Вид битрейта : Variable
Битрейт : 495 Kbps
Каналы : 6 channels
Расположение каналов : Front: L C R, Side: L R, LFE
Частота : 48.0 KHz
Метод сжатия : Lossy
Размер потока : 222 MiB (8%)
Язык : Russian
Дата кодирования : UTC 2014-02-19 17:12:21
Дата пометки : UTC 2014-02-19 17:12:21
--

MediaInfo 3 сезона

General
Полное имя : D:У Ж А С ЫХодячие мертвецыThe_Walking_Dead_S01_-_S04_RUS[Fox_Crime_LostFilm]_DD5.1_x264_Nikolai.Baranov_WEB-DLRip_HDTVRip_ВDRip-AVC_(1080p)S03The_Walking_Dead_2012_S03E01_rus[Fox_Crime]_DD5.1_x264_Nikolai.Baranov_WEB-DLRip-AVC_(1080p).mp4
Формат : MPEG-4
Профиль формата : Base Media
Идентификатор кодека : isom
Размер файла : 1.87 GiB
Продолжительность : 43mn 5s
Режим общего битрейта : Variable
Общий поток : 6 205 Kbps
Название фильма : The Walking Dead [Season 3] (2012) - Release for HDCLUB
Дата кодирования : UTC 2014-02-27 14:00:46
Дата пометки : UTC 2014-02-27 14:00:46
Программа кодирования : Lavf51.12.1
Video
Идентификатор : 1
Формат : AVC
Формат/Информация : Advanced Video Codec
Профиль формата : Baseline@L4.0
Параметр CABAC формата : No
Параметр ReFrames формата : 1 frame
Параметр GOP формата : M=1, N=12
Идентификатор кодека : avc1
Идентификатор кодека/Информация : Advanced Video Coding
Продолжительность : 43mn 5s
Вид битрейта : Variable
Битрейт : 5 710 Kbps
Максимальный битрейт : 8 250 Kbps
Ширина : 1 920 pixels
Высота : 1 080 pixels
Соотношение сторон : 16:9
Режим частоты кадров : Constant
Частота кадров : 25.000 fps
Частота кадров в оригинале : 24.000 fps
Цветовое пространство : YUV
Субдискретизация насыщенности : 4:2:0
Битовая глубина : 8 bits
Тип развёртки : Progressive
Бит/(Пиксели*Кадры) : 0.110
Размер потока : 1.72 GiB (92%)
Язык : English
Дата кодирования : UTC 2014-02-27 14:00:46
Дата пометки : UTC 2014-02-27 14:00:46
Audio
Идентификатор : 2
Формат : AAC
Формат/Информация : Advanced Audio Codec
Профиль формата : LC
Идентификатор кодека : 40
Продолжительность : 43mn 5s
Вид битрейта : Variable
Битрейт : 491 Kbps
Каналы : 6 channels
Расположение каналов : Front: L C R, Side: L R, LFE
Частота : 48.0 KHz
Метод сжатия : Lossy
Размер потока : 151 MiB (8%)
Язык : Russian
Дата кодирования : UTC 2014-02-27 14:00:46
Дата пометки : UTC 2014-02-27 14:00:46
--

MediaInfo 4 сезона

General
Полное имя : D:Новая папкаThe_Walking_Dead_S03_-_S04_RUS[Fox_Crime]_DD5.1_x264_Nikolai.Baranov_WEB-DLRip-AVC_(1080p)The_Walking_Dead_2013_S04E01_rus[Fox_Crime]_DD5.1_x264_Nikolai.Baranov_WEB-DLRip-AVC_(1080p).mp4
Формат : MPEG-4
Профиль формата : Base Media
Идентификатор кодека : isom
Размер файла : 1.65 GiB
Продолжительность : 43mn 3s
Режим общего битрейта : Variable
Общий поток : 5 470 Kbps
Дата кодирования : UTC 2013-10-15 18:35:25
Дата пометки : UTC 2013-10-15 18:35:25
Программа кодирования : Lavf51.12.1
Video
Идентификатор : 1
Формат : AVC
Формат/Информация : Advanced Video Codec
Профиль формата : Baseline@L4.0
Параметр CABAC формата : No
Параметр ReFrames формата : 1 frame
Параметр GOP формата : M=1, N=12
Идентификатор кодека : avc1
Идентификатор кодека/Информация : Advanced Video Coding
Продолжительность : 43mn 3s
Вид битрейта : Variable
Битрейт : 5 182 Kbps
Максимальный битрейт : 7 500 Kbps
Ширина : 1 920 pixels
Высота : 1 080 pixels
Соотношение сторон : 16:9
Режим частоты кадров : Constant
Частота кадров : 25.000 fps
Частота кадров в оригинале : 24.000 fps
Цветовое пространство : YUV
Субдискретизация насыщенности : 4:2:0
Битовая глубина : 8 bits
Тип развёртки : Progressive
Бит/(Пиксели*Кадры) : 0.100
Размер потока : 1.56 GiB (95%)
Язык : English
Дата кодирования : UTC 2013-10-15 18:35:25
Дата пометки : UTC 2013-10-15 18:35:25
Audio
Идентификатор : 2
Формат : AAC
Формат/Информация : Advanced Audio Codec
Профиль формата : LC
Идентификатор кодека : 40
Продолжительность : 43mn 3s
Вид битрейта : Variable
Битрейт : 288 Kbps
Каналы : 6 channels
Расположение каналов : Front: L C R, Side: L R, LFE
Частота : 44.1 KHz
Метод сжатия : Lossy
Размер потока : 87.9 MiB (5%)
Дата кодирования : UTC 2013-10-15 18:35:25
Дата пометки : UTC 2013-10-15 18:35:25
--

Скриншоты1 сезона

--

Скриншоты2 сезона

--

Скриншоты3 сезона

--

Скриншоты4 сезона

-- 1 сезон-- 2 сезон-- 3 сезон-- 4 сезон--

Как закачать отдельный файл

1. Открыть торрент
2. Снять галки с тех файлов торрента, которые мы не хотим закачивать. Оставляем только на нужных нам файлах (файле).
3. Нажать О.К.
В клиенте utorrent
Инструкция
1) Открыть торрент

2) Снять галки с тех файлов торрента, которые мы не хотим закачивать:
* либо вручную, снимая с каждого файла галку( скрин №1)
* либо, нажав кнопку "Снять метки (Select None)", сняв сразу со всех файлов(скрин №2)
№1

№2

Оставляем только на нужных нам файлах (файле).

3)Нажать О.К
-- --Внимание!!! 01.04. 2014. РАЗДАЧА ОБНОВЛЕНА.ОБНОВИТЕ ТОРЕНТ ФАЙЛ.ПРИЯТНОГО ПРОСМОТРА . --Релиз от: Nikolai.Baranov -- -- -- --
[Профиль] [ЛС]
Кто просматривает тему:

Форум Тема Автор Размер
Зарубежные сериалы Бойтесь ходячих мертвецов / Fear the Walking Dead (Сезон 1, Серия 1-6 из 6) (Адам Дэвидсон) [2015, Ужасы, драма ,WEB-DLRip 1080p] [DD5.1] [MVO] [LostFilm ,AMC , NewStudio , BaibaKo , HamsterStudio ,... Враг Нароода 17.54 GB
Зарубежные сериалы Бойтесь ходячих мертвецов / Fear the Walking Dead (Сезон 1-2, Серия 1-21 из 21) (Адам Дэвидсон) [2015-2016, Ужасы, драма ,WEB-DLRip 1080p] [DD5.1] [MVO] [LostFilm ,AMC , NewStudio , BaibaKo ,... Враг Нароода 51.89 GB
Зарубежные сериалы Бойтесь ходячих мертвецов / Fear the Walking Dead [S01-02] (2015-2016) WEB-DLRip | LostFilm Russian Mafia 11.19 GB
Зарубежные сериалы Бойтесь ходячих мертвецов / Fear the Walking Dead [S01] (2015) HDTVRip | AMC достали все 3.91 GB
Зарубежные сериалы Бойтесь ходячих мертвецов / Fear the Walking Dead [S01] (2015) WEB-DL 1080p | BaibaKo Russian Mafia 12.33 GB
Зарубежные сериалы Бойтесь ходячих мертвецов / Fear the Walking Dead [S01] (2015) WEB-DL 1080p | LostFilm Russian Mafia 12.36 GB
Зарубежные сериалы Бойтесь ходячих мертвецов / Fear the Walking Dead [S01] (2015) WEB-DL 720p | BaibaKo Russian Mafia 9.96 GB
Зарубежные сериалы Бойтесь ходячих мертвецов / Fear the Walking Dead [S01] (2015) WEB-DL 720p | LostFilm Russian Mafia 9.93 GB
Показать сообщения:    

Текущее время: Сегодня 02:43

Часовой пояс: GMT



Вы не можете начинать темы
Вы не можете отвечать на сообщения
Вы не можете редактировать свои сообщения
Вы не можете удалять свои сообщения
Вы не можете голосовать в опросах
Вы не можете прикреплять файлы к сообщениям
Вы не можете скачивать файлы