Хобот: Внезапная ходка взад-назад / The Hobbit: An Unexpected Journey [1-4 часть] (2012) BDRip 1080p | Гоблин

 
Автор Сообщение

ODESSA ®

Пол:

Стаж: 1 год 7 месяцев

Сообщений: 400

Откуда: ODESSA



Награды: Нет

Торрент-статистика

Создавать темы 13-Июл-2016 07:02

[Цитировать]

Хобот: Внезапная ходка взад-назад [1-4 часть] / The Hobbit: An Unexpected Journey
Год выпуска: 2012
Страна: США, Новая Зеландия
Жанр: фэнтези, приключения, комедия, смешной перевод
Режиссер: Питер Джексон
В ролях: Мартин Фриман, Иэн МакКеллен, Ричард Армитедж, Джеймс Несбитт, Кен Стотт, Грэм МакТавиш, Дин О’Горман, Эйдан Тернер, Джед Брофи, Марк Хэдлоу
Перевод: Авторский одноголосый закадровый (Д.Пучков (Гоблин) - "Божья искра")
Описание: "Смешной перевод" известного фильма. Это первые четыре части, остальные будут добавляться по мере появления.
Качество: BDRip 1080p
Формат: MP4
Видео: MPEG4 Video (H264), 1920x1080, 10032kbps, 24 fps
Аудио: AAC, 124 Kbps, 48 kHz, 2 channels
Продолжительность: 0:40:26
Спасибо: viktorh71

MediaInfo

General
Complete name : Hobbit_Goblin_part_02.mp4 »
Format : MPEG-4
Codec ID : M4V
File size : 1.61 GiB
Duration : 22mn 32s
Overall bit rate mode : Variable
Overall bit rate : 10.2 Mbps
Season : 0
Movie name : Hobbit_Goblin_part_02
Movie name/More : video
Album/Performer : Goblin
Part : 0
Performer : no
Deion : video
Encoded date : UTC 2015-10-28 10:10:40
Tagged date : UTC 2015-10-28 10:22:09
Rating : None
Keyword : no
AppleStoreCountry : Unknown Country
AppleStoreCatalogID : 0
AlbumTitleID : 0
PlayListID : 0
GenreID : 0
cmID : 0
ContentRating : mpaa|Unrated|???|
Video
ID : 2
Format : AVC
Format/Info : Advanced Video Codec
Format profile : High@L4
Format settings, CABAC : Yes
Format settings, ReFrames : 2 frames
Codec ID : avc1
Codec ID/Info : Advanced Video Coding
Duration : 22mn 32s
Bit rate mode : Variable
Bit rate : 10.1 Mbps
Maximum bit rate : 768 Kbps
Width : 1 920 pixels
Height : 1 080 pixels
Display aspect ratio : 16:9
Frame rate mode : Constant
Frame rate : 23.976 fps
Original frame rate : 25.000 fps
Color space : YUV
Chroma subsampling : 4:2:0
Bit depth : 8 bits
Scan type : Progressive
Bits/(Pixel*Frame) : 0.203
Stream size : 1.59 GiB (99%)
Title : Core Media Video
Encoded date : UTC 2015-10-28 10:10:40
Tagged date : UTC 2015-10-28 10:19:08
Color range : Limited
Color primaries : BT.709
Transfer characteristics : BT.709
Matrix coefficients : BT.709
Audio
ID : 1
Format : AAC
Format/Info : Advanced Audio Codec
Format profile : LC
Codec ID : 40
Duration : 22mn 32s
Source duration : 22mn 32s
Bit rate mode : Variable
Bit rate : 124 Kbps
Maximum bit rate : 158 Kbps
Channel(s) : 2 channels
Channel positions : Front: L R
Sampling rate : 48.0 KHz
Compression mode : Lossy
Stream size : 20.1 MiB (1%)
Source stream size : 20.1 MiB (1%)
Title : Core Media Audio
Language : Russian
Encoded date : UTC 2015-10-28 10:10:40
Tagged date : UTC 2015-10-28 10:19:08
Семпл: https://yadi.sk/i/1YRBAuHFkA4JS
[Профиль] [ЛС]
Показать сообщения:    

Текущее время: Сегодня 08:50

Часовой пояс: GMT



Вы не можете начинать темы
Вы не можете отвечать на сообщения
Вы не можете редактировать свои сообщения
Вы не можете удалять свои сообщения
Вы не можете голосовать в опросах
Вы не можете прикреплять файлы к сообщениям
Вы не можете скачивать файлы