Хоббит / The Hobbit: Дилогия (2012-2013) BDRip 1080p | 60 fps | D | Extended Cut

 
Автор Сообщение

sergej644 ®

Пол:

Стаж: 4 года 11 месяцев

Сообщений: 6041

Откуда: Soviet Union



Награды: Нет

Торрент-статистика

Создавать темы 15-Ноя-2014 14:59

[Цитировать]

--Хоббит / The Hobbit: Дилогия (2012-2013) BDRip 1080p

Хоббит: Нежданное путешествие

--Хоббит: Нежданное путешествие
-Название: Хоббит: Нежданное путешествие
Оригинальное название: The Hobbit: An Unexpected Journey
Год выпуска: 2012
Страна: США, Новая Зеландия
Жанр: фэнтези, приключения
Продолжительность: 03:02:30
Перевод: Дубляж+Оригинал
Субтитры: русские (Полные,форс), английские (Полные)-Режиссер: Питер Джексон / Peter Jackson-В ролях: Мартин Фриман (Bilbo), Иэн МакКеллен (Gandalf), Ричард Армитедж (Thorin), Джеймс Несбитт (Bofur), Кен Стотт (Balin), Грэм МакТавиш (Dwalin), Дин О’Горман (Fili), Эйдан Тернер (Kili), Стивен Хантер (Bombur), Сильвестр МакКой (Radagast), Джед Брофи (Nori), Марк Хэдлоу (Dori / Bert Troll)-Описание:
Фильм повествует о путешествии Бильбо Бэггинса, который пускается в грандиозный поход, целью которого является отвоевание утраченного королевства гномов Эребор у зловещего дракона Смауга. Совершенно неожиданно с хоббитом налаживает контакт волшебник Гэндальф Серый. Так Бильбо находит себя, присоединяясь к компании тринадцати гномов, возглавляемых легендарным воином, Торином Дубощитом. Их путешествие проляжет через Дикий Край, через предательские земли, населенные гоблинами и орками, смертоносными варгами и гигантскими пауками, народом, меняющим шкуры, и волшебниками.
И хотя их цель находится на Востоке, среди пустошей Одинокой Горы, сначала им придется выбраться из туннелей гоблинов, где Бильбо встретит существо, которое изменит его жизнь навсегда... Голлума.
Здесь, один на один с Голлумом, на берегу подземного озера, непритязательный Бильбо Бэггинс обнаружит не только скрытые в глубине души хитрость и отвагу, которые удивят даже его, но и завладеет «прелестным» колечком Голлума, которое обладает нежданными и полезными свойствами... Простое золотое кольцо, c которым связана судьба всего Средиземья, нитями, о которых Бильбо не мог даже вообразить.-Рейтинг

imdb.com: 8.00 (466 613)
MPAA: PG-13 - Детям до 13 лет просмотр не желателен-Автор рипа:Tiberiumsun69-Качество: BDRip 1080p
Формат: MKV
Видео кодек: AVC
Аудио кодек:AC3
✦ Видео: ~16000 kb/s ,1920*800, 59,880 кадров/сек
✦ Аудио 1 Русский: 5.1, 448 kb/s, 48,0 КГц
✦ Аудио 2 Английский: 5.1, 640 kb/s, 48,0 КГц
Навигация по главам: есть-

MI

Общее
Уникальный идентификатор : 172691129545474981453147426587036292360 (0x81EB1A0C6E1C40368FF1E646B7D31508)
Полное имя : F:ХоббитХоббит 1 Нежданное путешествие.mkv
Формат : Matroska
Версия формата : Version 4 / Version 2
Размер файла : 21,8 Гбайт
Длительность : 3 ч. 2 м.
Общий поток : 17,1 Мбит/сек
Дата кодирования : UTC 2014-04-03 09:44:18
Программа кодирования : mkvmerge v6.8.0 ('Theme for Great Cities') 64bit built on Mar 2 2014 21:34:26
Библиотека кодирования : libebml v1.3.0 + libmatroska v1.4.1
Видео
Идентификатор : 1
Формат : AVC
Формат/Информация : Advanced Video Кодек
Профиль формата : High@L4.1
Параметр CABAC формата : Да
Параметр ReFrames формата : 5 кадров
Идентификатор кодека : V_MPEG4/ISO/AVC
Длительность : 3 ч. 2 м.
Битрейт : 16,0 Мбит/сек
Ширина : 1920 пикселей
Высота : 800 пикселей
Соотношение сторон : 2,40:1
Режим частоты кадров : Постоянный
Частота кадров : 59,880 кадров/сек
Частота кадров в оригинале : 59,940 кадров/сек
Цветовое пространство : YUV
Субдискретизация насыщенности : 4:2:0
Битовая глубина : 8 бит
Тип развёртки : Прогрессивная
Бит/(Пиксели*Кадры) : 0.174
Размер потока : 20,0 Гбайт (92%)
Библиотека кодирования : x264 core 130 r2273 b3065e6
Настройки программы : cabac=1 / ref=5 / deblock=1:-1:-1 / analyse=0x3:0 / me=umh / subme=9 / psy=1 / psy_rd=1.00:0.10 / mixed_ref=1 / me_range=24 / chroma_me=0 / trellis=1 / 8x8dct=1 / cqm=0 / deadzone=21,11 / fast_pskip=0 / chroma_qp_offset=-3 / threads=6 / lookahead_threads=1 / sliced_threads=0 / nr=0 / decimate=0 / interlaced=0 / bluray_compat=0 / constrained_intra=0 / bframes=5 / b_pyramid=2 / b_adapt=2 / b_bias=0 / direct=3 / weightb=1 / open_gop=0 / weightp=2 / keyint=250 / keyint_min=25 / scenecut=40 / intra_refresh=0 / rc=2pass / mbtree=0 / bitrate=16000 / ratetol=1.0 / qcomp=0.60 / qpmin=0 / qpmax=69 / qpstep=4 / cplxblur=20.0 / qblur=0.5 / ip_ratio=1.40 / pb_ratio=1.30 / aq=1:0.90
Язык : English
Default : Да
Forced : Нет
Аудио #1
Идентификатор : 2
Формат : AC-3
Формат/Информация : Audio Coding 3
Расширение режима : CM (complete main)
Параметр Endianness формата : Big
Идентификатор кодека : A_AC3
Длительность : 3 ч. 2 м.
Вид битрейта : Постоянный
Битрейт : 448 Кбит/сек
Каналы : 6 каналов
Расположение каналов : Front: L C R, Side: L R, LFE
Частота : 48,0 КГц
Битовая глубина : 16 бит
Метод сжатия : С потерями
Размер потока : 585 Мбайт (3%)
Заголовок : Dub
Язык : Russian
Default : Да
Forced : Нет
Аудио #2
Идентификатор : 3
Формат : AC-3
Формат/Информация : Audio Coding 3
Расширение режима : CM (complete main)
Параметр Endianness формата : Big
Идентификатор кодека : A_AC3
Длительность : 3 ч. 2 м.
Вид битрейта : Постоянный
Битрейт : 640 Кбит/сек
Каналы : 6 каналов
Расположение каналов : Front: L C R, Side: L R, LFE
Частота : 48,0 КГц
Битовая глубина : 16 бит
Метод сжатия : С потерями
Размер потока : 836 Мбайт (4%)
Заголовок : Original
Язык : English
Default : Нет
Forced : Нет
Текст #1
Идентификатор : 4
Формат : UTF-8
Идентификатор кодека : S_TEXT/UTF8
Идентификатор кодека/Информация : UTF-8 Plain Text
Заголовок : forced
Язык : Russian
Default : Да
Forced : Нет
Текст #2
Идентификатор : 5
Формат : UTF-8
Идентификатор кодека : S_TEXT/UTF8
Идентификатор кодека/Информация : UTF-8 Plain Text
Заголовок : Full
Язык : Russian
Default : Нет
Forced : Нет
Текст #3
Идентификатор : 6
Формат : UTF-8
Идентификатор кодека : S_TEXT/UTF8
Идентификатор кодека/Информация : UTF-8 Plain Text
Заголовок : Full
Язык : English
Default : Нет
Forced : Нет
Меню
00:00:00.000 : en:Prologue: The Fall of Erebor
00:10:11.903 : en:"In a Hole in the Ground There Lived a Hobbit"
00:14:08.723 : en:Very Old Friends
00:17:27.255 : en:Mr. Baggins
00:18:44.623 : en:An Unexpected Party
00:23:16.604 : en:"Blunt the Knives"
00:27:59.469 : en:A Map, A Key and A Contract
00:36:04.871 : en:"Misty Mountains"
00:41:17.266 : en:"...The World Ahead"
00:46:30.830 : en:The Battle of Azanulbizar
00:53:04.181 : en:Radagast the Brown
00:58:07.651 : en:Trollshaws
00:59:55.300 : en:Roast Mutton
01:10:42.405 : en:A Troll-hoard
01:15:01.831 : en:The Hill of Sorcery
01:18:52.811 : en:Warg-scouts
01:24:56.925 : en:Rivendell
01:30:34.429 : en:A Short Rest
01:34:10.603 : en:Moon Runes
01:37:24.464 : en:The Defiler
01:39:03.479 : en:The Last Homely House
01:41:40.803 : en:The White Council
01:50:22.533 : en:"Why the Halfling?"
01:52:59.773 : en:Over Hill
01:59:06.348 : en:Under Hill
02:03:57.513 : en:The Great Goblin
02:09:51.575 : en:Riddles in the Dark
02:23:21.426 : en:Biter and Beater
02:25:18.877 : en:The Ring
02:26:31.199 : en:Escape from Goblin Town
02:30:52.919 : en:The Pity of Bilbo
02:33:00.546 : en:"Home is Behind..."
02:35:52.593 : en:Out of the Frying Pan...
02:46:51.210 : en:A Good Omen
02:52:21.373 : en:Credits

Скриншоты

Хоббит: Пустошь Смауга

--Хоббит: Пустошь Смауга
-Название: Хоббит: Пустошь Смауга
Оригинальное название: The Hobbit: The Desolation of Smaug
Год выпуска: 2013
Страна: США, Новая Зеландия
Жанр: фэнтези, приключения
Продолжительность: 02:41:21
Перевод: Дубляж+Оригинал
Субтитры: русские (Полные,форс), английские (Полные)-Режиссер: Питер Джексон / Peter Jackson-В ролях: Мартин Фриман (Bilbo), Ричард Армитедж (Thorin), Иэн МакКеллен (Gandalf), Эванджелин Лилли (Tauriel), Орландо Блум (Legolas), Люк Эванс (Bard / Girion), Бенедикт Камбербэтч (Smaug / Necromancer), Ли Пейс (Thranduil), Кен Стотт (Balin), Эйдан Тернер (Kili), Грэм МакТавиш (Dwalin), Джеймс Несбитт (Bofur)-Описание:
Продолжение путешествия хоббита Бильбо Бэггинса, волшебника Гэндальфа и 13 отважных гномов. Их компания обязана завершить своё путешествие к Одинокой горе. Там они должны встретиться с величайшей опасностью из всех - созданием куда более ужасающим, чем все их прошлые противники, которое проверит на прочность не только их мужество, но крепость их дружбы и правильность выбранного пути, - драконом Смаугом.-Рейтинг

imdb.com: 8.10 (301 704)
MPAA: PG-13 - Детям до 13 лет просмотр не желателен-Автор рипа:Tiberiumsun69-Качество: BDRip 1080p
Формат: MKV
Видео кодек: AVC
Аудио кодек:AC3
✦ Видео: ~16000 kb/s ,1920*800, 59,880 кадров/сек
✦ Аудио 1 Русский: 5.1, 448 kb/s, 48,0 КГц
✦ Аудио 2 Английский: 5.1, 640 kb/s, 48,0 КГц
Навигация по главам: есть-

MI

Общее
Уникальный идентификатор : 175728262097108925072293982543203879569 (0x8434083E92CD8E67A077DF7E92154A91)
Полное имя : F:ХоббитХоббит 2 Пустошь Смауга.mkv
Формат : Matroska
Версия формата : Version 4 / Version 2
Размер файла : 19,3 Гбайт
Длительность : 2 ч. 41 м.
Общий поток : 17,1 Мбит/сек
Дата кодирования : UTC 2014-04-03 06:46:10
Программа кодирования : mkvmerge v6.8.0 ('Theme for Great Cities') 64bit built on Mar 2 2014 21:34:26
Библиотека кодирования : libebml v1.3.0 + libmatroska v1.4.1
Видео
Идентификатор : 1
Формат : AVC
Формат/Информация : Advanced Video Кодек
Профиль формата : High@L4.1
Параметр CABAC формата : Да
Параметр ReFrames формата : 5 кадров
Идентификатор кодека : V_MPEG4/ISO/AVC
Длительность : 2 ч. 41 м.
Битрейт : 16,0 Мбит/сек
Ширина : 1920 пикселей
Высота : 800 пикселей
Соотношение сторон : 2,40:1
Режим частоты кадров : Постоянный
Частота кадров : 59,880 кадров/сек
Частота кадров в оригинале : 59,940 кадров/сек
Цветовое пространство : YUV
Субдискретизация насыщенности : 4:2:0
Битовая глубина : 8 бит
Тип развёртки : Прогрессивная
Бит/(Пиксели*Кадры) : 0.174
Размер потока : 17,7 Гбайт (92%)
Библиотека кодирования : x264 core 130 r2273 b3065e6
Настройки программы : cabac=1 / ref=5 / deblock=1:-1:-1 / analyse=0x3:0 / me=umh / subme=9 / psy=1 / psy_rd=1.00:0.10 / mixed_ref=1 / me_range=24 / chroma_me=0 / trellis=1 / 8x8dct=1 / cqm=0 / deadzone=21,11 / fast_pskip=0 / chroma_qp_offset=-3 / threads=6 / lookahead_threads=1 / sliced_threads=0 / nr=0 / decimate=0 / interlaced=0 / bluray_compat=0 / constrained_intra=0 / bframes=5 / b_pyramid=2 / b_adapt=2 / b_bias=0 / direct=3 / weightb=1 / open_gop=0 / weightp=2 / keyint=250 / keyint_min=25 / scenecut=40 / intra_refresh=0 / rc=2pass / mbtree=0 / bitrate=16000 / ratetol=1.0 / qcomp=0.60 / qpmin=0 / qpmax=69 / qpstep=4 / cplxblur=20.0 / qblur=0.5 / ip_ratio=1.40 / pb_ratio=1.30 / aq=1:0.90
Язык : English
Default : Да
Forced : Нет
Аудио #1
Идентификатор : 2
Формат : AC-3
Формат/Информация : Audio Coding 3
Расширение режима : CM (complete main)
Параметр Endianness формата : Big
Идентификатор кодека : A_AC3
Длительность : 2 ч. 41 м.
Вид битрейта : Постоянный
Битрейт : 448 Кбит/сек
Каналы : 6 каналов
Расположение каналов : Front: L C R, Side: L R, LFE
Частота : 48,0 КГц
Битовая глубина : 16 бит
Метод сжатия : С потерями
Размер потока : 517 Мбайт (3%)
Заголовок : Dub
Язык : Russian
Default : Да
Forced : Нет
Аудио #2
Идентификатор : 6
Формат : AC-3
Формат/Информация : Audio Coding 3
Расширение режима : CM (complete main)
Параметр Endianness формата : Big
Идентификатор кодека : A_AC3
Длительность : 2 ч. 41 м.
Вид битрейта : Постоянный
Битрейт : 640 Кбит/сек
Каналы : 6 каналов
Расположение каналов : Front: L C R, Side: L R, LFE
Частота : 48,0 КГц
Битовая глубина : 16 бит
Метод сжатия : С потерями
Размер потока : 739 Мбайт (4%)
Заголовок : Original
Язык : English
Default : Нет
Forced : Нет
Текст #1
Идентификатор : 3
Формат : PGS
Режим смешивания : zlib
Идентификатор кодека : S_HDMV/PGS
Идентификатор кодека/Информация : The same subtitle Формат used on BDs/HD-DVDs
Заголовок : Forced
Язык : Russian
Default : Да
Forced : Нет
Текст #2
Идентификатор : 4
Формат : PGS
Режим смешивания : zlib
Идентификатор кодека : S_HDMV/PGS
Идентификатор кодека/Информация : The same subtitle Формат used on BDs/HD-DVDs
Заголовок : Full
Язык : Russian
Default : Нет
Forced : Нет
Текст #3
Идентификатор : 5
Формат : PGS
Режим смешивания : zlib
Идентификатор кодека : S_HDMV/PGS
Идентификатор кодека/Информация : The same subtitle Формат used on BDs/HD-DVDs
Заголовок : Original
Язык : English
Default : Нет
Forced : Нет
Меню
00:00:00.000 : :Chapter 01
00:05:44.093 : :Chapter 02
00:10:10.985 : :Chapter 03
00:11:10.127 : :Chapter 04
00:13:50.204 : :Chapter 05
00:17:12.656 : :Chapter 06
00:21:25.325 : :Chapter 07
00:24:33.471 : :Chapter 08
00:33:03.272 : :Chapter 09
00:36:05.746 : :Chapter 10
00:39:38.959 : :Chapter 11
00:41:29.653 : :Chapter 12
00:44:27.289 : :Chapter 13
00:55:01.756 : :Chapter 14
00:58:41.768 : :Chapter 15
01:02:05.138 : :Chapter 16
01:05:29.592 : :Chapter 17
01:09:06.267 : :Chapter 18
01:11:29.118 : :Chapter 19
01:13:11.762 : :Chapter 20
01:19:14.958 : :Chapter 21
01:20:48.468 : :Chapter 22
01:23:12.529 : :Chapter 23
01:27:09.641 : :Chapter 24
01:30:45.481 : :Chapter 25
01:33:29.812 : :Chapter 26
01:41:57.194 : :Chapter 27
01:42:24.471 : :Chapter 28
01:44:08.033 : :Chapter 29
01:47:34.114 : :Chapter 30
01:56:46.332 : :Chapter 31
01:57:28.916 : :Chapter 32
01:58:03.409 : :Chapter 33
01:59:42.300 : :Chapter 34
02:01:30.574 : :Chapter 35
02:04:04.311 : :Chapter 36
02:07:58.462 : :Chapter 37
02:09:43.108 : :Chapter 38
02:10:58.642 : :Chapter 39
02:12:31.443 : :Chapter 40
02:13:54.317 : :Chapter 41
02:16:25.427 : :Chapter 42
02:18:51.489 : :Chapter 43
02:26:03.588 : :Chapter 44
02:30:51.208 : :Chapter 45

Скриншоты

--
[Профиль] [ЛС]
Кто просматривает тему:

Форум Тема Автор Размер
Da Vinci Learning Da Vinci Learning: Тайна Хоббита / The Hobbit Enigma (Simon Nasht, Annamaria Talas) [2008 г., Локументальный, научно-популярный, археология, антропология, SATRip] skorpionN 843 MB
Разное Журнал | М-Хобби №3 (165) (март 2015) [PDF] достали все 55 MB
Техника и моделирование Сборник журналов "М-Хобби" [01-176] (1993-2016) PDF (обновление от 07.02.2016) Garik014 7.84 GB
Фантастика и фэнтези Толкиен Джон Р. Р. - «Хоббит, или туда и обратно». Трилогия «Властелин колец» [Гришина Анна, Стабуров Роман, Ярмолинец Семён, 2004, фэнтэзи, 256 kbps] Garik014 3.69 GB
Фильмы 2015 года Хоббит и Несносный Супердед / The Hobbit: The Desolation of Smaug (2015) HDRip | Смешной перевод достали все 1.67 GB
Фильмы 2016 года Хоббит и шоколадная фабрика / The Hobbit: The Desolation of Smaug (2016) HDRip | Смешной перевод BOSS 1.78 GB
Фильмы 2013 года Хоббит с татуировкой дракона / The Hobbit: An Unexpected Journey (2013) DVDRip | Смешной перевод Белочка 703 MB
Фильмы (HD DVD, Blu-ray и BDRemux) Хоббит: Битва пяти воинств / The Hobbit: The Battle of the Five Armies (2014) BDRemux 1080р достали все 27.39 GB
Показать сообщения:    

Текущее время: Сегодня 06:07

Часовой пояс: GMT



Вы не можете начинать темы
Вы не можете отвечать на сообщения
Вы не можете редактировать свои сообщения
Вы не можете удалять свои сообщения
Вы не можете голосовать в опросах
Вы не можете прикреплять файлы к сообщениям
Вы не можете скачивать файлы