Хоббит: Трилогия / The Hobbit: Trilogy (2012-2014) BDRip 1080p от HDReactor | Extended Cut

 
Автор Сообщение

Russian Mafia ®

Пол:

Стаж: 1 год 8 месяцев

Сообщений: 4257



Награды: 10 (Подробнее)

Top Releaser 4 (Количество: 1) За внесенный вклад в развитие сайта (Количество: 1) Mega Seeder 5 (Количество: 1)
Торрент-статистика

Создавать темы 15-Ноя-2015 06:19

[Цитировать]

О трилогии: С чего началось то, что навсегда изменило мир? С потери гномьим народом своего родного дома и горячего желания его вернуть, пронесенного даже сквозь года! А причем же здесь хоббит Бильбо Бэггинс? Ведь он не гном и с домом у него все в порядке - кладовые полны припасов, а шкафчики - маминой посуды! Почему волшебник Гэндальф выбрал именно его в спутники тринадцати гномам под предводительством легендарного воина Торина Дубощита? Что же на самом деле так глубоко спрятано в этом полурослике, и поможет ли это отважным гномам обрести то, ради чего они не раз будут готовы встречаться со смертью?

Хоббит: Нежданное путешествие


Название: Хоббит: Нежданное путешествие
Оригинальное название: The Hobbit: An Unexpected Journey
Год выпуска: 2012
Страна: США, Новая Зеландия
Жанр: фэнтези, приключения
Продолжительность: 03:02:31
Перевод: Дубляж
Режиссер: Питер Джексон / Peter Jackson
В ролях: Мартин Фриман (Bilbo), Иэн МакКеллен (Gandalf), Ричард Армитедж (Thorin), Джеймс Несбитт (Bofur), Кен Стотт (Balin), Грэм МакТавиш (Dwalin), Дин О’Горман (Fili), Эйдан Тернер (Kili), Стивен Хантер (Bombur), Сильвестр МакКой (Radagast), Джед Брофи (Nori), Марк Хэдлоу (Dori / Bert Troll)
Описание:
Фильм повествует о путешествии Бильбо Бэггинса, который пускается в грандиозный поход, целью которого является отвоевание утраченного королевства гномов Эребор у зловещего дракона Смауга. Совершенно неожиданно с хоббитом налаживает контакт волшебник Гэндальф Серый. Так Бильбо находит себя, присоединяясь к компании тринадцати гномов, возглавляемых легендарным воином, Торином Дубощитом. Их путешествие проляжет через Дикий Край, через предательские земли, населенные гоблинами и орками, смертоносными варгами и гигантскими пауками, народом, меняющим шкуры, и волшебниками.
И хотя их цель находится на Востоке, среди пустошей Одинокой Горы, сначала им придется выбраться из туннелей гоблинов, где Бильбо встретит существо, которое изменит его жизнь навсегда... Голлума.
Здесь, один на один с Голлумом, на берегу подземного озера, непритязательный Бильбо Бэггинс обнаружит не только скрытые в глубине души хитрость и отвагу, которые удивят даже его, но и завладеет «прелестным» колечком Голлума, которое обладает нежданными и полезными свойствами... Простое золотое кольцо, c которым связана судьба всего Средиземья, нитями, о которых Бильбо не мог даже вообразить.

Качество: BDRip (1080p)
Видео: MPEG-4 AVC, 9206 Кбит/с, 1920x800
Аудио #1: Русский (AC3, 6 ch, 448 Кбит/с)
Аудио #2: Английский (AC3, 6 ch, 640 Кбит/с)
Субтитры: русские (Форсированные), русские (Полные)
МедиаИнфоФормат : Matroska
Версия формата : Version 2
Размер файла : 11,7 Гбайт
Продолжительность : 3 ч. 2 м.
Общий поток : 9206 Кбит/сек
Название фильма : ~V ad~
Дата кодирования : UTC 2013-11-11 06:04:22
Программа кодирования : mkvmerge v6.5.0 ('Isn't she lovely') built on Oct 20 2013 12:50:05
Библиотека кодирования : libebml v1.3.0 + libmatroska v1.4.1
Видео
Идентификатор : 1
Формат : AVC
Формат/Информация : Advanced Video Codec
Профиль формата : High@L4.1
Параметр CABAC формата : Да
Параметр ReFrames формата : 5 кадров
Идентификатор кодека : V_MPEG4/ISO/AVC
Продолжительность : 3 ч. 2 м.
Битрейт : 8119 Кбит/сек
Ширина : 1920 пикселей
Высота : 800 пикселей
Соотношение сторон : 2,40:1
Режим частоты кадров : Постоянный
Частота кадров : 23,976 кадра/сек
Цветовое пространство : YUV
Субдискретизация насыщенности : 4:2:0
Битовая глубина : 8 бит
Тип развёртки : Прогрессивная
Бит/(Пиксели*Кадры) : 0.220
Размер потока : 10,1 Гбайт (86%)
Заголовок : ~V~
Библиотека кодирования : x264 core 138 r2359+704+48 3f879a0 tMod [8-bit@all X86_64]
Настройки программы : cabac=1 / ref=5 / deblock=1:-3:-3 / analyse=0x3:0x133 / me=umh / subme=11 / psy=1 / fade_compensate=0.00 / psy_rd=1.00:0.00 / mixed_ref=1 / me_range=32 / chroma_me=1 / trellis=2 / 8x8dct=1 / cqm=0 / deadzone=21,11 / fast_pskip=0 / chroma_qp_offset=-2 / threads=12 / lookahead_threads=1 / sliced_threads=0 / nr=0 / decimate=0 / interlaced=0 / bluray_compat=0 / constrained_intra=0 / fgo=0 / bframes=9 / b_pyramid=2 / b_adapt=2 / b_bias=0 / direct=3 / weightb=1 / open_gop=0 / weightp=2 / keyint=240 / keyint_min=23 / scenecut=40 / intra_refresh=0 / rc=2pass / mbtree=0 / bitrate=8119 / ratetol=1.0 / qcomp=0.60 / qpmin=0:0:0 / qpmax=69:69:69 / qpstep=4 / cplxblur=20.0 / qblur=0.5 / ip_ratio=1.40 / pb_ratio=1.30 / aq=2:0.80 / aq-sensitivity=10.00 / aq-factor=1.00:1.00:1.00 / aq2=0 / aq3=0
Язык : English
Default : Да
Forced : Нет
Аудио #1
Идентификатор : 2
Формат : AC-3
Формат/Информация : Audio Coding 3
Расширение режима : CM (complete main)
Параметр Endianness формата : Big
Идентификатор кодека : A_AC3
Продолжительность : 3 ч. 2 м.
Вид битрейта : Постоянный
Битрейт : 448 Кбит/сек
Каналы : 6 каналов
Расположение каналов : Front: L C R, Side: L R, LFE
Частота : 48,0 КГц
Битовая глубина : 16 бит
Метод сжатия : С потерями
Размер потока : 585 Мбайт (5%)
Заголовок : AC3.448Kbps (6ch) Russian (Дубляж)
Язык : Russian
Default : Да
Forced : Нет
Аудио #2
Идентификатор : 3
Формат : AC-3
Формат/Информация : Audio Coding 3
Расширение режима : CM (complete main)
Параметр Endianness формата : Big
Идентификатор кодека : A_AC3
Продолжительность : 3 ч. 2 м.
Вид битрейта : Постоянный
Битрейт : 640 Кбит/сек
Каналы : 6 каналов
Расположение каналов : Front: L C R, Side: L R, LFE
Частота : 48,0 КГц
Битовая глубина : 16 бит
Метод сжатия : С потерями
Размер потока : 836 Мбайт (7%)
Заголовок : AC3.640Kbps (6ch) English
Язык : English
Default : Нет
Forced : Нет
Текст #1
Идентификатор : 4
Формат : UTF-8
Идентификатор кодека : S_TEXT/UTF8
Идентификатор кодека/Информация : UTF-8 Plain Text
Заголовок : Russian (Full)
Язык : Russian
Default : Нет
Forced : Нет
Текст #2
Идентификатор : 5
Формат : UTF-8
Идентификатор кодека : S_TEXT/UTF8
Идентификатор кодека/Информация : UTF-8 Plain Text
Заголовок : Russian (Forced)
Язык : Russian
Default : Да
Forced : Нет
Меню
00:00:00.000 : en:Prologue: The Fall of Erebor
00:10:11.903 : en:"In a Hole in the Ground There Lived a Hobbit"
00:14:08.723 : en:Very Old Friends
00:17:27.255 : en:Mr. Baggins
00:18:44.623 : en:An Unexpected Party
00:23:16.604 : en:"Blunt the Knives"
00:27:59.469 : en:A Map, A Key and A Contract
00:36:04.871 : en:"Misty Mountains"
00:41:17.266 : en:"...The World Ahead"
00:46:30.830 : en:The Battle of Azanulbizar
00:53:04.181 : en:Radagast the Brown
00:58:07.651 : en:Trollshaws
00:59:55.300 : en:Roast Mutton
01:10:42.405 : en:A Troll-hoard
01:15:01.831 : en:The Hill of Sorcery
01:18:52.811 : en:Warg-scouts
01:24:56.925 : en:Rivendell
01:30:34.429 : en:A Short Rest
01:34:10.603 : en:Moon Runes
01:37:24.464 : en:The Defiler
01:39:03.479 : en:The Last Homely House
01:41:40.803 : en:The White Council
01:50:22.533 : en:"Why the Halfling?"
01:52:59.773 : en:Over Hill
01:59:06.348 : en:Under Hill
02:03:57.513 : en:The Great Goblin
02:09:51.575 : en:Riddles in the Dark
02:23:21.426 : en:Biter and Beater
02:25:18.877 : en:The Ring
02:26:31.199 : en:Escape from Goblin Town
02:30:52.919 : en:The Pity of Bilbo
02:33:00.546 : en:"Home is Behind..."
02:35:52.593 : en:Out of the Frying Pan...
02:46:51.210 : en:A Good Omen
02:52:21.373 : en:Credits

х264

x264 [info]: frame I:2071 Avg QP:15.40 size:196134
x264 [info]: frame P:65255 Avg QP:18.40 size: 81270
x264 [info]: frame B:195221 Avg QP:20.22 size: 27666

Скриншоты

Хоббит: Пустошь Смауга


Название: Хоббит: Пустошь Смауга
Оригинальное название: The Hobbit: The Desolation of Smaug
Год выпуска: 2013
Страна: США, Новая Зеландия
Жанр: фэнтези, приключения
Продолжительность: 03:06:35
Перевод: Дубляж
Режиссер: Питер Джексон / Peter Jackson
В ролях: Мартин Фриман (Bilbo), Ричард Армитедж (Thorin), Иэн МакКеллен (Gandalf), Эванджелин Лилли (Tauriel), Орландо Блум (Legolas), Люк Эванс (Bard / Girion), Бенедикт Камбербэтч (Smaug / Necromancer, озвучка), Ли Пейс (Thranduil), Кен Стотт (Balin), Эйдан Тернер (Kili), Грэм МакТавиш (Dwalin), Джеймс Несбитт (Bofur)
Описание:
Продолжение путешествия хоббита Бильбо Бэггинса, волшебника Гэндальфа и 13 отважных гномов. Их компания обязана завершить своё путешествие к Одинокой горе. Там они должны встретиться с величайшей опасностью из всех - созданием куда более ужасающим, чем все их прошлые противники, которое проверит на прочность не только их мужество, но крепость их дружбы и правильность выбранного пути, - драконом Смаугом.

Качество: BDRip (1080p)
Видео: MPEG-4 AVC, 7764 Кбит/с, 1920x800
Аудио #1: Русский (AC3, 6 ch, 448 Кбит/с)
Аудио #2: Английский (AC3, 6 ch, 640 Кбит/с)
Субтитры: русские (Форсированные), русские (Полные)
МедиаИнфоФормат : Matroska
Версия формата : Version 2
Размер файла : 11,5 Гбайт
Продолжительность : 3 ч. 6 м.
Общий поток : 8853 Кбит/сек
Название фильма : ~V ad~
Дата кодирования : UTC 2014-11-08 01:59:07
Программа кодирования : mkvmerge v6.1.0 ('Old Devil') built on Mar 4 2013 09:10:42
Библиотека кодирования : libebml v1.3.0 + libmatroska v1.4.0
Видео
Идентификатор : 1
Формат : AVC
Формат/Информация : Advanced Video Codec
Профиль формата : High@L4.1
Параметр CABAC формата : Да
Параметр ReFrames формата : 5 кадров
Идентификатор кодека : V_MPEG4/ISO/AVC
Продолжительность : 3 ч. 6 м.
Битрейт : 7764 Кбит/сек
Ширина : 1920 пикселей
Высота : 800 пикселей
Соотношение сторон : 2,40:1
Режим частоты кадров : Постоянный
Частота кадров : 23,976 кадра/сек
Цветовое пространство : YUV
Субдискретизация насыщенности : 4:2:0
Битовая глубина : 8 бит
Тип развёртки : Прогрессивная
Бит/(Пиксели*Кадры) : 0.211
Размер потока : 9,89 Гбайт (86%)
Заголовок : ~V~
Библиотека кодирования : x264 core 142 r2409+42 04be48a tMod [8-bit@all X86_64]
Настройки программы : cabac=1 / ref=5 / deblock=1:-3:-3 / analyse=0x3:0x133 / me=umh / subme=11 / psy=1 / fade_compensate=0.00 / psy_rd=1.00:0.00 / mixed_ref=1 / me_range=32 / chroma_me=1 / trellis=2 / 8x8dct=1 / cqm=0 / deadzone=21,11 / fast_pskip=0 / chroma_qp_offset=-2 / threads=12 / lookahead_threads=1 / sliced_threads=0 / nr=0 / decimate=0 / interlaced=0 / bluray_compat=0 / constrained_intra=0 / fgo=0 / bframes=9 / b_pyramid=2 / b_adapt=2 / b_bias=0 / direct=3 / weightb=1 / open_gop=0 / weightp=2 / keyint=240 / keyint_min=23 / scenecut=40 / intra_refresh=0 / rc=2pass / mbtree=0 / bitrate=7764 / ratetol=1.0 / qcomp=0.60 / qpmin=0:0:0 / qpmax=69:69:69 / qpstep=4 / cplxblur=20.0 / qblur=0.5 / ip_ratio=1.40 / pb_ratio=1.30 / aq=4:0.80 / aq-sensitivity=11.00 / aq-factor=1.00:1.00:1.00 / aq2=1:0.70 / aq2-sensitivity=10.00 / aq2-factor=1.00:1.00:1.00 / aq3=1:[0.60:0.60]:[0.60:0.60]:[0.60:0.60]:[0.60:0.60] / aq3-sensitivity=9.00 / aq3-factor=[1.00:1.00]:[1.00:1.00]:[1.00:1.00] / aq3-boundary=192:64:24
Язык : English
Default : Да
Forced : Нет
Аудио #1
Идентификатор : 2
Формат : AC-3
Формат/Информация : Audio Coding 3
Расширение режима : CM (complete main)
Параметр Endianness формата : Big
Идентификатор кодека : A_AC3
Продолжительность : 3 ч. 6 м.
Вид битрейта : Постоянный
Битрейт : 448 Кбит/сек
Каналы : 6 каналов
Расположение каналов : Front: L C R, Side: L R, LFE
Частота : 48,0 КГц
Битовая глубина : 16 бит
Метод сжатия : С потерями
Размер потока : 598 Мбайт (5%)
Заголовок : AC3.448Kbps (6ch) Russian (Дубляж)
Язык : Russian
Default : Да
Forced : Нет
Аудио #2
Идентификатор : 3
Формат : AC-3
Формат/Информация : Audio Coding 3
Расширение режима : CM (complete main)
Параметр Endianness формата : Big
Идентификатор кодека : A_AC3
Продолжительность : 3 ч. 6 м.
Вид битрейта : Постоянный
Битрейт : 640 Кбит/сек
Каналы : 6 каналов
Расположение каналов : Front: L C R, Side: L R, LFE
Частота : 48,0 КГц
Битовая глубина : 16 бит
Метод сжатия : С потерями
Размер потока : 854 Мбайт (7%)
Заголовок : AC3.640Kbps (6ch) English
Язык : English
Default : Нет
Forced : Нет
Текст #1
Идентификатор : 4
Формат : UTF-8
Идентификатор кодека : S_TEXT/UTF8
Идентификатор кодека/Информация : UTF-8 Plain Text
Заголовок : Russian (Full)
Язык : Russian
Default : Нет
Forced : Нет
Текст #2
Идентификатор : 5
Формат : UTF-8
Идентификатор кодека : S_TEXT/UTF8
Идентификатор кодека/Информация : UTF-8 Plain Text
Заголовок : Russian (Forced)
Язык : Russian
Default : Да
Forced : Нет
Меню
00:00:00.000 : en:The Quest for Erebor**
00:07:33.411 : en:Wilderland
00:12:00.302 : en:The Master Summons
00:12:59.445 : en:A Commander of Legions
00:15:55.371 : en:Queer Lodgings*
00:20:56.922 : en:Last of the Skin-changers
00:23:15.435 : en:Where the Shadows Lie*
00:25:52.676 : en:The Elven-gate**
00:29:59.255 : en:Mirkwood**
00:38:14.041 : en:Flies and Spiders
00:46:43.842 : en:The Woodland Realm
00:49:46.316 : en:The Elvenking
00:53:19.529 : en:King and Captain
00:55:10.223 : en:Feast of Starlight
00:58:07.859 : en:Barrels Out of Bond
01:08:42.326 : en:The High Fells
01:12:22.338 : en:Bard the Bowman
01:15:45.707 : en:The Nature of Evil
01:19:10.162 : en:Smuggled Cargo
01:22:46.836 : en:Lake-town
01:25:09.687 : en:The Master of Lake-town**
01:28:07.740 : en:The World of Men**
01:31:15.553 : en:The Home of Bard
01:36:02.756 : en:"It Is Our Fight"
01:37:35.891 : en:The Prophecy**
01:40:35.404 : en:A Warm Welcome**
01:45:16.518 : en:The Parting of the Company**
01:48:44.476 : en:The Lonely Mountain**
01:50:31.750 : en:A Spell of Concealment**
01:52:36.541 : en:The Hidden Door
01:53:08.448 : en:Son of Thror*
01:59:16.357 : en:On the Doorstep
02:07:11.832 : en:Kingsfoil
02:07:39.109 : en:The Courage of Hobbits
02:09:22.671 : en:The Enemy Revealed**
02:12:48.585 : en:Inside Information
02:22:00.845 : en:The Black Arrow
02:22:43.429 : en:In the Dragon's Lair
02:23:17.922 : en:Under Arrest
02:24:56.396 : en:Bilbo the Burgler
02:26:45.087 : en:Smaug the Magnificent
02:29:18.824 : en:Orc Attach
02:33:12.975 : en:Confrontations
02:34:57.621 : en:Elvish Medicine
02:36:13.155 : en:Hunter and Hunted
02:37:45.956 : en:"She Walks In Starlight"
02:39:08.830 : en:A Desperate Plan
02:41:39.940 : en:Duel in Lake-town
02:44:06.002 : en:The Forges Relit
02:51:16.683 : en:Smaug the Golden
02:56:05.555 : en:Credits

х264

x264 [info]: frame I:2289 Avg QP:15.47 size:176178
x264 [info]: frame P:64527 Avg QP:17.62 size: 73598
x264 [info]: frame B:201593 Avg QP:18.30 size: 28331

Скриншоты

Хоббит: Битва пяти воинств


Название: Хоббит: Битва пяти воинств
Оригинальное название: The Hobbit: The Battle of the Five Armies
Год выпуска: 2014
Страна: Новая Зеландия, США
Жанр: фэнтези, приключения
Продолжительность: 02:44:03
Перевод: Дубляж
Режиссер: Питер Джексон / Peter Jackson
В ролях: Мартин Фриман (Bilbo Baggins), Иэн МакКеллен (Gandalf), Ричард Армитедж (Thorin), Люк Эванс (Bard), Эванджелин Лилли (Tauriel), Ли Пейс (Thranduil), Орландо Блум (Legolas), Бенедикт Камбербэтч (Smaug / Necromancer, озвучка), Кен Стотт (Balin), Эйдан Тернер (Kili), Грэм МакТавиш (Dwalin), Уильям Кирчер (Bifur)
Описание:
Когда отряд из тринадцати гномов нанимал хоббита Бильбо Бэгинса в качестве взломщика и четырнадцатого, «счастливого», участника похода к Одинокой горе, Бильбо полагал, что его приключения закончатся, когда он выполнит свою задачу - найдет сокровище, которое так необходимо предводителю гномов Торину. Путешествие в Эребор, захваченное драконом Смаугом королевство гномов, оказалось еще более опасным, чем предполагали гномы и даже Гэндальф - мудрый волшебник, протянувший Торину и его отряду руку помощи.
В погоню за гномами устремилась армия орков, ведомых пробудившимся в руинах древним злом, а эльфы и люди, с которыми Бильбо и его товарищам пришлось иметь дело во время путешествия и которые пострадали от последствий желания гномов вернуть свой дом, предъявили права на щедрое вознаграждение - часть сокровищ Одинокой горы. Скоро неподалеку от Одинокой горы встретятся пять армий, и лишь кровопролитная битва определит результаты смелого гномьего похода.

Качество: BDRip (1080p)
Видео: MPEG-4 AVC, 9074 Кбит/с, 1920x800
Аудио #1: Русский (AC3, 6 ch, 384 Кбит/с)
Аудио #2: Английский (AC3, 6 ch, 640 Кбит/с)
Субтитры: русские (Форсированные), русские (Полные)
МедиаИнфоФормат : Matroska
Версия формата : Version 2
Размер файла : 11,6 Гбайт
Продолжительность : 2 ч. 44 м.
Общий поток : 10,1 Мбит/сек
Название фильма : ~V ad~
Дата кодирования : UTC 2015-11-14 16:22:16
Программа кодирования : mkvmerge v6.5.0 ('Isn't she lovely') built on Oct 20 2013 12:50:05
Библиотека кодирования : libebml v1.3.0 + libmatroska v1.4.1
Видео
Идентификатор : 1
Формат : AVC
Формат/Информация : Advanced Video Codec
Профиль формата : High@L4.1
Параметр CABAC формата : Да
Параметр ReFrames формата : 5 кадров
Идентификатор кодека : V_MPEG4/ISO/AVC
Продолжительность : 2 ч. 44 м.
Битрейт : 9074 Кбит/сек
Ширина : 1920 пикселей
Высота : 800 пикселей
Соотношение сторон : 2,40:1
Режим частоты кадров : Постоянный
Частота кадров : 23,976 кадра/сек
Цветовое пространство : YUV
Субдискретизация насыщенности : 4:2:0
Битовая глубина : 8 бит
Тип развёртки : Прогрессивная
Бит/(Пиксели*Кадры) : 0.246
Размер потока : 10,2 Гбайт (88%)
Заголовок : ~V~
Библиотека кодирования : x264 core 148 r2579+50 65f745f t_mod_Custom [8-bit@all X86_64]
Настройки программы : cabac=1 / ref=5 / deblock=1:-3:-3 / analyse=0x3:0x133 / me=umh / subme=11 / psy=1 / fade_compensate=0.00 / psy_rd=1.00:0.00 / mixed_ref=1 / me_range=32 / chroma_me=1 / trellis=2 / 8x8dct=1 / cqm=0 / deadzone=21,11 / fast_pskip=0 / chroma_qp_offset=-2 / threads=12 / lookahead_threads=1 / sliced_threads=0 / nr=0 / decimate=0 / interlaced=0 / bluray_compat=0 / constrained_intra=0 / fgo=0 / bframes=8 / b_pyramid=2 / b_adapt=2 / b_bias=0 / direct=3 / weightb=1 / open_gop=0 / weightp=2 / keyint=240 / keyint_min=23 / scenecut=40 / intra_refresh=0 / rc=2pass / mbtree=0 / bitrate=9074 / ratetol=1.0 / qcomp=0.60 / qpmin=0:0:0 / qpmax=69:69:69 / qpstep=4 / cplxblur=20.0 / qblur=0.5 / ip_ratio=1.40 / pb_ratio=1.30 / aq=3:0.90 / aq-sensitivity=11.00 / aq-factor=1.00:1.00:1.00 / aq2=1:0.60 / aq2-sensitivity=10.00 / aq2-factor=1.00:1.00:1.00 / aq3=1:[0.60:0.60]:[0.60:0.60]:[0.60:0.60]:[0.60:0.60] / aq3-sensitivity=9.00 / aq3-factor=[1.00:1.00]:[1.00:1.00]:[1.00:1.00] / aq3-boundary=192:64:24
Язык : English
Default : Да
Forced : Нет
Аудио #1
Идентификатор : 2
Формат : AC-3
Формат/Информация : Audio Coding 3
Расширение режима : CM (complete main)
Параметр Endianness формата : Big
Идентификатор кодека : A_AC3
Продолжительность : 2 ч. 44 м.
Вид битрейта : Постоянный
Битрейт : 384 Кбит/сек
Каналы : 6 каналов
Расположение каналов : Front: L C R, Side: L R, LFE
Частота : 48,0 КГц
Метод сжатия : С потерями
Задержка видео : 1 с. 0 мс.
Размер потока : 451 Мбайт (4%)
Заголовок : AC3.384Kbps (6ch) Russian (Дубляж)
Язык : Russian
Default : Да
Forced : Нет
Аудио #2
Идентификатор : 3
Формат : AC-3
Формат/Информация : Audio Coding 3
Расширение режима : CM (complete main)
Параметр Endianness формата : Big
Идентификатор кодека : A_AC3
Продолжительность : 2 ч. 44 м.
Вид битрейта : Постоянный
Битрейт : 640 Кбит/сек
Каналы : 6 каналов
Расположение каналов : Front: L C R, Side: L R, LFE
Частота : 48,0 КГц
Метод сжатия : С потерями
Размер потока : 751 Мбайт (6%)
Заголовок : AC3.640Kbps (6ch) English
Язык : English
Default : Нет
Forced : Нет
Текст #1
Идентификатор : 4
Формат : UTF-8
Идентификатор кодека : S_TEXT/UTF8
Идентификатор кодека/Информация : UTF-8 Plain Text
Заголовок : Russian (Full)
Язык : Russian
Default : Нет
Forced : Нет
Текст #2
Идентификатор : 5
Формат : UTF-8
Идентификатор кодека : S_TEXT/UTF8
Идентификатор кодека/Информация : UTF-8 Plain Text
Заголовок : Russian (Forced)
Язык : Russian
Default : Да
Forced : Нет
Меню
00:00:00.000 : en:Chapter 01
00:05:12.061 : en:Chapter 02
00:12:47.016 : en:Chapter 03
00:13:18.964 : en:Chapter 04
00:18:57.219 : en:Chapter 05
00:23:42.003 : en:Chapter 06
00:24:56.119 : en:Chapter 07
00:26:04.354 : en:Chapter 08
00:27:32.984 : en:Chapter 09
00:35:45.351 : en:Chapter 10
00:36:41.073 : en:Chapter 11
00:40:41.856 : en:Chapter 12
00:42:01.101 : en:Chapter 13
00:43:11.714 : en:Chapter 14
00:46:15.981 : en:Chapter 15
00:51:27.584 : en:Chapter 16
00:54:57.752 : en:Chapter 17
00:56:14.496 : en:Chapter 18
00:58:31.257 : en:Chapter 19
01:00:26.664 : en:Chapter 20
01:02:43.217 : en:Chapter 21
01:06:10.007 : en:Chapter 22
01:12:23.047 : en:Chapter 23
01:17:22.512 : en:Chapter 24
01:20:36.289 : en:Chapter 25
01:24:57.175 : en:Chapter 26
01:28:41.649 : en:Chapter 27
01:30:52.238 : en:Chapter 28
01:33:01.909 : en:Chapter 29
01:35:12.790 : en:Chapter 30
01:38:32.448 : en:Chapter 31
01:39:42.851 : en:Chapter 32
01:41:00.554 : en:Chapter 33
01:45:03.338 : en:Chapter 34
01:47:13.260 : en:Chapter 35
01:49:05.038 : en:Chapter 36
01:50:02.762 : en:Chapter 37
01:52:59.564 : en:Chapter 38
01:53:51.241 : en:Chapter 39
01:57:15.028 : en:Chapter 40
02:05:38.447 : en:Chapter 41
02:12:06.668 : en:Chapter 42
02:15:26.201 : en:Chapter 43
02:18:32.429 : en:Chapter 44
02:20:07.357 : en:Chapter 45
02:22:26.871 : en:Chapter 46
02:26:11.512 : en:Chapter 47
02:30:54.420 : en:Chapter 48

х264

x264 [info]: frame I:2005 Avg QP:16.32 size:201077
x264 [info]: frame P:65167 Avg QP:18.20 size: 83132
x264 [info]: frame B:168813 Avg QP:19.79 size: 31790

Скриншоты

Релиз от:
[Профиль] [ЛС]
Кто просматривает тему:

Форум Тема Автор Размер
Da Vinci Learning Da Vinci Learning: Тайна Хоббита / The Hobbit Enigma (Simon Nasht, Annamaria Talas) [2008 г., Локументальный, научно-популярный, археология, антропология, SATRip] skorpionN 843 MB
Разное Журнал | М-Хобби №3 (165) (март 2015) [PDF] достали все 55 MB
Техника и моделирование Сборник журналов "М-Хобби" [01-176] (1993-2016) PDF (обновление от 07.02.2016) Garik014 7.84 GB
Фантастика и фэнтези Толкиен Джон Р. Р. - «Хоббит, или туда и обратно». Трилогия «Властелин колец» [Гришина Анна, Стабуров Роман, Ярмолинец Семён, 2004, фэнтэзи, 256 kbps] Garik014 3.69 GB
Фильмы (HD Rips | 720p, 1080p) Хоббит / The Hobbit: Дилогия (2012-2013) BDRip 1080p | 60 fps | D | Extended Cut sergej644 41.07 GB
Фильмы 2015 года Хоббит и Несносный Супердед / The Hobbit: The Desolation of Smaug (2015) HDRip | Смешной перевод достали все 1.67 GB
Фильмы 2016 года Хоббит и шоколадная фабрика / The Hobbit: The Desolation of Smaug (2016) HDRip | Смешной перевод BOSS 1.78 GB
Фильмы 2013 года Хоббит с татуировкой дракона / The Hobbit: An Unexpected Journey (2013) DVDRip | Смешной перевод Белочка 703 MB
Показать сообщения:    

Текущее время: Сегодня 11:56

Часовой пояс: GMT



Вы не можете начинать темы
Вы не можете отвечать на сообщения
Вы не можете редактировать свои сообщения
Вы не можете удалять свои сообщения
Вы не можете голосовать в опросах
Вы не можете прикреплять файлы к сообщениям
Вы не можете скачивать файлы