Хоббит: Пустошь Смауга 3D / The Hobbit: The Desolation of Smaug 3D [Extended Edition] (Питер Джексон / Peter Jackson) [2013, США, Новая Зеландия, фэнтези, приключения, BDRip 1080p] [Расширенная версия / Extended Edition] Dub + Sub Rus + Original Eng

 
Автор Сообщение

TorrentFilm ®

Пол:

Стаж: 2 года

Сообщений: 7741



Награды: Нет

Торрент-статистика

Создавать темы 25-Окт-2015 00:11

[Цитировать]

Хоббит: Пустошь Смауга 3D / The Hobbit: The Desolation of Smaug 3D / Расширенная версия / Extended Edition
Страна: США, Новая Зеландия
Студия: Metro-Goldwyn-Mayer (MGM), New Line Cinema, WingNut Films
Жанр: фэнтези, приключения
Год выпуска: 2013
Продолжительность: 3:06:42
Перевод: Профессиональный (дублированный) (Лицензия - BD 3D CEE)
Cубтитры:Вшитые (softsub):
#1 - Русские Форсированные (в т.ч. на речь эльфов и орков) [включены по умолчанию]
#2 - Русские Полные
#3 - Украинские Форсированные (в т.ч. на речь эльфов и орков)
#4 - Украинские Полные
#5 - English Full
#6 - English SDH-Colored
Оригинальная аудиодорожка: английский
Режиссер: Питер Джексон / Peter Jackson
В ролях: Мартин Фриман, Ричард Армитедж, Иэн МакКеллен, Эванджелин Лилли, Орландо Блум, Люк Эванс, Бенедикт Камбербэтч, Ли Пейс, Кен Стотт, Эйдан Тернер...
Описание: Продолжение путешествия хоббита Бильбо Бэггинса, волшебника Гэндальфа и 13 отважных гномов. Их компания обязана завершить своё путешествие к Одинокой горе. Там они должны встретиться с величайшей опасностью из всех — созданием куда более ужасающим, чем все их прошлые противники, которое проверит на прочность не только их мужество, но крепость их дружбы и правильность выбранного пути, — драконом Смаугом.
Доп. информация: По сравнению с театральной версией добавлено 25 минут.
Сэмпл: https://yadi.sk/i/hod5ZEt2jrtLn
Качество: BDRip
Контейнер: MKV
Формат 3D: Half OverUnder / Вертикальная анаморфная стереопара
Порядок ракурсов: левый ракурс первый
Видео: AVC / 23,976 fps / 1920х1080p / ~8.8 Mbps Half OverUnder / Вертикальная анаморфная стереопара
Аудио: Русский / AC3 / 48 KHz / 5.1 ch / 448 Kbps (Дубляж - BD 3D CEE)
Аудио 2: Английский / AC3 / 48 KHz / 5.1 ch / 640 Kbps (Original - BD 3D CEE)
Формат субтитров: softsub (SRT)
Спасибо на хлеб не намажешь, пожалуйста не уходите с раздачи после того как скачали.

MediaInfo

E:\файлы\TheHobbit-2(2013)[Extended]3D-halfOU(Ash61)\TheHobbit-2(2013)[Extended]3D-halfOU(Ash61).mkv
General
Unique ID : 250063788480107043672942743177018863386 (0xBC2088A8B1D1B091B9903F68CB01EF1A)
Complete name : E:\файлы\TheHobbit-2(2013)[Extended]3D-halfOU(Ash61)\TheHobbit-2(2013)[Extended]3D-halfOU(Ash61).mkv
Format : Matroska
Format version : Version 2
File size : 13.1 GiB
Duration : 3h 6mn
Overall bit rate : 10.1 Mbps
Movie name : Хоббит: Пустошь Смауга / The Hobbit: The Desolation of Smaug (2013) [Расширенная версия / Extended Edition] 3D
Encoded date : UTC 2014-11-07 11:39:06
Writing application : mkvmerge v5.8.0 ('No Sleep / Pillow') built on Sep 2 2012 15:37:04
Writing library : libebml v1.2.3 + libmatroska v1.3.0
Video #1
ID : 1
Format : AVC
Format/Info : Advanced Video Codec
Format profile : High@L4.1
Format settings, CABAC : Yes
Format settings, ReFrames : 4 frames
Codec ID : V_MPEG4/ISO/AVC
Duration : 3h 6mn
Bit rate : 8 780 Kbps
Width : 1 920 pixels
Height : 1 080 pixels
Display aspect ratio : 16:9
Frame rate mode : Constant
Frame rate : 23.976 fps
Color space : YUV
Chroma subsampling : 4:2:0
Bit depth : 8 bits
Scan type : Progressive
Bits/(Pixel*Frame) : 0.177
Stream size : 11.4 GiB (87%)
Title : BDRip by Ash61
Writing library : x264 core 138 r2358 9e941d1
Encoding settings : cabac=1 / ref=4 / deblock=1:-3:-3 / analyse=0x3:0x113 / me=umh / subme=10 / psy=1 / psy_rd=1.00:0.15 / mixed_ref=1 / me_range=32 / chroma_me=1 / trellis=2 / 8x8dct=1 / cqm=0 / deadzone=21,11 / fast_pskip=1 / chroma_qp_offset=-3 / threads=12 / lookahead_threads=2 / sliced_threads=0 / nr=0 / decimate=1 / interlaced=0 / bluray_compat=0 / constrained_intra=0 / bframes=9 / b_pyramid=2 / b_adapt=2 / b_bias=0 / direct=3 / weightb=1 / open_gop=0 / weightp=2 / keyint=250 / keyint_min=23 / scenecut=40 / intra_refresh=0 / rc_lookahead=60 / rc=crf / mbtree=1 / crf=17.0 / qcomp=0.70 / qpmin=0 / qpmax=69 / qpstep=4 / vbv_maxrate=40000 / vbv_bufsize=30000 / crf_max=0.0 / nal_hrd=none / frame-packing=4 / ip_ratio=1.40 / aq=1:0.70
Language : English
Default : Yes
Forced : No
Audio #2
ID : 2
Format : AC-3
Format/Info : Audio Coding 3
Mode extension : CM (complete main)
Format settings, Endianness : Big
Codec ID : A_AC3
Duration : 3h 6mn
Bit rate mode : Constant
Bit rate : 448 Kbps
Channel(s) : 6 channels
Channel positions : Front: L C R, Side: L R, LFE
Sampling rate : 48.0 KHz
Compression mode : Lossy
Stream size : 598 MiB (4%)
Title : Дубляж - BD 3D CEE
Language : Russian
Default : Yes
Forced : No
Audio #3
ID : 3
Format : AC-3
Format/Info : Audio Coding 3
Mode extension : CM (complete main)
Format settings, Endianness : Big
Codec ID : A_AC3
Duration : 3h 6mn
Bit rate mode : Constant
Bit rate : 640 Kbps
Channel(s) : 6 channels
Channel positions : Front: L C R, Side: L R, LFE
Sampling rate : 48.0 KHz
Compression mode : Lossy
Stream size : 855 MiB (6%)
Title : Original - BD 3D CEE
Language : English
Default : No
Forced : No
Text #4
ID : 4
Format : UTF-8
Codec ID : S_TEXT/UTF8
Codec ID/Info : UTF-8 Plain Text
Title : Форсированные (iTunes)
Language : Russian
Default : Yes
Forced : No
Text #5
ID : 5
Format : UTF-8
Codec ID : S_TEXT/UTF8
Codec ID/Info : UTF-8 Plain Text
Title : Полные (iTunes)
Language : Russian
Default : No
Forced : No
Text #6
ID : 6
Format : UTF-8
Codec ID : S_TEXT/UTF8
Codec ID/Info : UTF-8 Plain Text
Title : Форсированные (сделаны с iTunes)
Language : Ukrainian
Default : No
Forced : No
Text #7
ID : 7
Format : UTF-8
Codec ID : S_TEXT/UTF8
Codec ID/Info : UTF-8 Plain Text
Title : Полные (iTunes)
Language : Ukrainian
Default : No
Forced : No
Text #8
ID : 8
Format : UTF-8
Codec ID : S_TEXT/UTF8
Codec ID/Info : UTF-8 Plain Text
Title : Full
Language : English
Default : No
Forced : No
Text #9
ID : 9
Format : UTF-8
Codec ID : S_TEXT/UTF8
Codec ID/Info : UTF-8 Plain Text
Title : SDH-Colored
Language : English
Default : No
Forced : No

Скриншоты

[Профиль] [ЛС]
Кто просматривает тему:

Форум Тема Автор Размер
Da Vinci Learning Da Vinci Learning: Тайна Хоббита / The Hobbit Enigma (Simon Nasht, Annamaria Talas) [2008 г., Локументальный, научно-популярный, археология, антропология, SATRip] skorpionN 843 MB
Разное Журнал | М-Хобби №3 (165) (март 2015) [PDF] достали все 55 MB
Техника и моделирование Сборник журналов "М-Хобби" [01-176] (1993-2016) PDF (обновление от 07.02.2016) Garik014 7.84 GB
Фантастика и фэнтези Толкиен Джон Р. Р. - «Хоббит, или туда и обратно». Трилогия «Властелин колец» [Гришина Анна, Стабуров Роман, Ярмолинец Семён, 2004, фэнтэзи, 256 kbps] Garik014 3.69 GB
Фильмы (HD Rips | 720p, 1080p) Хоббит / The Hobbit: Дилогия (2012-2013) BDRip 1080p | 60 fps | D | Extended Cut sergej644 41.07 GB
Фильмы 2015 года Хоббит и Несносный Супердед / The Hobbit: The Desolation of Smaug (2015) HDRip | Смешной перевод достали все 1.67 GB
Фильмы 2016 года Хоббит и шоколадная фабрика / The Hobbit: The Desolation of Smaug (2016) HDRip | Смешной перевод BOSS 1.78 GB
Фильмы 2013 года Хоббит с татуировкой дракона / The Hobbit: An Unexpected Journey (2013) DVDRip | Смешной перевод Белочка 703 MB
Показать сообщения:    

Текущее время: Сегодня 00:48

Часовой пояс: GMT



Вы не можете начинать темы
Вы не можете отвечать на сообщения
Вы не можете редактировать свои сообщения
Вы не можете удалять свои сообщения
Вы не можете голосовать в опросах
Вы не можете прикреплять файлы к сообщениям
Вы не можете скачивать файлы