Хоббит: Пустошь Смауга / The Hobbit: The Desolation of Smaug (2013) BDRip 1080p от ExKinoRay | Extended Cut | Лицензия

 
Автор Сообщение

Белочка ®

Пол:

Стаж: 5 лет 1 месяц

Сообщений: 2089



Награды: 1 (Подробнее)

Girls (Количество: 1)
Торрент-статистика

Создавать темы 07-Ноя-2014 21:42

[Цитировать]

Информация о фильме
Название: Хоббит: Пустошь Смауга
Оригинальное название: The Hobbit: The Desolation of Smaug
Год выпуска: 2013
Жанр: Фэнтези, приключения, экранизация
Выпущено: США, Новая Зеландия, Metro-Goldwyn-Mayer (MGM), New Line Cinema, WingNut Films
Режиссер: Питер Джексон
В ролях: Мартин Фриман, Ричард Армитедж, Иэн МакКеллен, Эванджелин Лилли, Орландо Блум, Люк Эванс, Бенедикт Камбербэтч, Ли Пейс, Кен Стотт, Эйдан Тёрнер
О фильме: Продолжение путешествия хоббита Бильбо Бэггинса, волшебника Гэндальфа и 13 отважных гномов. Их компания обязана завершить своё путешествие к Одинокой горе. Там они должны встретиться с величайшей опасностью из всех — созданием куда более ужасающим, чем все их прошлые противники, которое проверит на прочность не только их мужество, но крепость их дружбы и правильность выбранного пути, — драконом Смаугом.

Файл
Качество: BDRip (1080p)
Видео: MPEG-4 AVC, 8888 Кбит/с, 1920x800, 23.976 Кадр/с
Аудио: Русский (AC3, 6 ch, 448 Кбит/с), английский (DTS, 6 ch, 1509 Кбит/с)
Размер: 14.14 ГБ
Продолжительность: 03:06:35
Перевод: Дублированный
Субтитры: Русские, украинские, английские
Озвучивание - Дублированное (Лицензия)
Сохранены оригинальные чаптеры как на Blu-Ray

x264

x264 [info]: frame I:2256 Avg QP:13.88 size:220835
x264 [info]: frame P:70036 Avg QP:17.17 size: 85723
x264 [info]: frame B:196140 Avg QP:19.34 size: 30256
x264 [info]: consecutive B-frames: 3.5% 5.8% 10.9% 39.5% 15.5% 18.3% 3.8% 1.6% 0.4% 0.7%
x264 [info]: mb I I16..4: 14.1% 46.3% 39.6%
x264 [info]: mb P I16..4: 2.7% 21.6% 4.8% P16..4: 26.1% 27.5% 7.7% 4.2% 0.6% skip: 4.8%
x264 [info]: mb B I16..4: 0.7% 4.1% 1.1% B16..8: 34.3% 19.7% 2.7% direct: 7.4% skip:30.2% L0:40.8% L1:41.3% BI:17.9%
x264 [info]: 8x8 transform intra:71.0% inter:43.1%
x264 [info]: direct mvs spatial:98.2% temporal:1.8%
x264 [info]: coded y,uvDC,uvAC intra: 87.4% 68.8% 38.5% inter: 31.7% 19.1% 6.2%
x264 [info]: i16 v,h,dc,p: 24% 10% 14% 53%
x264 [info]: i8 v,h,dc,ddl,ddr,vr,hd,vl,hu: 10% 9% 12% 9% 11% 11% 11% 12% 15%
x264 [info]: i4 v,h,dc,ddl,ddr,vr,hd,vl,hu: 12% 12% 11% 7% 12% 11% 12% 9% 14%
x264 [info]: i8c dc,h,v,p: 37% 29% 20% 14%
x264 [info]: Weighted P-Frames: Y:3.3% UV:1.2%
x264 [info]: ref P L0: 54.5% 11.7% 19.8% 6.9% 6.2% 0.8% 0.0%
x264 [info]: ref B L0: 84.1% 11.6% 3.3% 0.9%
x264 [info]: ref B L1: 95.0% 5.0%
x264 [info]: kb/s:8886.36

Инфо-файл

Общее
Уникальный идентификатор : 190078588272156489517610538498955548927 (0x8EFFCDF351F125B3BEB05BCA988618FF)
Полное имя : D:ЗагрузкиThe.Hobbit.The.Desolation.Of.Smaug.2013.x264.BDRip.(1080p).ExKinoRay.mkv
Формат : Matroska
Версия формата : Version 2
Размер файла : 14,1 Гбайт
Продолжительность : 3 ч. 6 м.
Общий поток : 10,8 Мбит/сек
Название фильма : Хоббит: Пустошь Смауга (Расширенная версия).2013.Rip by: ollan
Дата кодирования : UTC 2014-11-06 21:08:34
Программа кодирования : mkvmerge v5.6.0 ('Kenya Kane') built on May 27 2012 16:44:04
Библиотека кодирования : libebml v1.2.3 + libmatroska v1.3.0
Видео
Идентификатор : 1
Формат : AVC
Формат/Информация : Advanced Video Codec
Профиль формата : High@L4.1
Параметр CABAC формата : Да
Параметр ReFrames формата : 5 кадров
Идентификатор кодека : V_MPEG4/ISO/AVC
Продолжительность : 3 ч. 6 м.
Битрейт : 8888 Кбит/сек
Ширина : 1920 пикселей
Высота : 800 пикселей
Соотношение сторон : 2,40:1
Режим частоты кадров : Постоянный
Частота кадров : 23,976 кадра/сек
Цветовое пространство : YUV
Субдискретизация насыщенности : 4:2:0
Битовая глубина : 8 бит
Тип развёртки : Прогрессивная
Бит/(Пиксели*Кадры) : 0.241
Размер потока : 11,3 Гбайт (80%)
Библиотека кодирования : x264 core 125 r2200 999b753
Настройки программы : cabac=1 / ref=5 / deblock=1:-3:-3 / analyse=0x3:0x133 / me=umh / subme=11 / psy=1 / psy_rd=1.00:0.10 / mixed_ref=1 / me_range=32 / chroma_me=1 / trellis=2 / 8x8dct=1 / cqm=0 / deadzone=21,11 / fast_pskip=0 / chroma_qp_offset=-3 / threads=12 / lookahead_threads=2 / sliced_threads=0 / nr=0 / decimate=0 / interlaced=0 / bluray_compat=0 / constrained_intra=0 / bframes=9 / b_pyramid=2 / b_adapt=2 / b_bias=0 / direct=3 / weightb=1 / open_gop=0 / weightp=2 / keyint=240 / keyint_min=23 / scenecut=40 / intra_refresh=0 / rc_lookahead=60 / rc=2pass / mbtree=1 / bitrate=8888 / ratetol=1.0 / qcomp=0.60 / qpmin=0 / qpmax=69 / qpstep=4 / cplxblur=20.0 / qblur=0.5 / ip_ratio=1.40 / aq=1:1.00
Default : Да
Forced : Нет
Аудио #1
Идентификатор : 2
Формат : AC-3
Формат/Информация : Audio Coding 3
Расширение режима : CM (complete main)
Параметр Endianness формата : Big
Идентификатор кодека : A_AC3
Продолжительность : 3 ч. 6 м.
Вид битрейта : Постоянный
Битрейт : 448 Кбит/сек
Каналы : 6 каналов
Расположение каналов : Front: L C R, Side: L R, LFE
Частота : 48,0 КГц
Битовая глубина : 16 бит
Метод сжатия : С потерями
Размер потока : 598 Мбайт (4%)
Заголовок : Дублированный (Лицензия)
Язык : Russian
Default : Да
Forced : Нет
Аудио #2
Идентификатор : 3
Формат : DTS
Формат/Информация : Digital Theater Systems
Режим : 16
Параметр Endianness формата : Big
Идентификатор кодека : A_DTS
Продолжительность : 3 ч. 6 м.
Вид битрейта : Постоянный
Битрейт : 1509 Кбит/сек
Каналы : 6 каналов
Расположение каналов : Front: L C R, Side: L R, LFE
Частота : 48,0 КГц
Битовая глубина : 24 бит
Метод сжатия : С потерями
Размер потока : 1,97 Гбайт (14%)
Язык : English
Default : Нет
Forced : Нет
Текст #1
Идентификатор : 4
Формат : UTF-8
Идентификатор кодека : S_TEXT/UTF8
Идентификатор кодека/Информация : UTF-8 Plain Text
Заголовок : Forced
Язык : Russian
Default : Да
Forced : Нет
Текст #2
Идентификатор : 5
Формат : UTF-8
Идентификатор кодека : S_TEXT/UTF8
Идентификатор кодека/Информация : UTF-8 Plain Text
Заголовок : Full
Язык : Russian
Default : Нет
Forced : Нет
Текст #3
Идентификатор : 6
Формат : UTF-8
Идентификатор кодека : S_TEXT/UTF8
Идентификатор кодека/Информация : UTF-8 Plain Text
Заголовок : Full
Язык : Ukrainian
Default : Нет
Forced : Нет
Текст #4
Идентификатор : 7
Формат : UTF-8
Идентификатор кодека : S_TEXT/UTF8
Идентификатор кодека/Информация : UTF-8 Plain Text
Заголовок : Full
Язык : English
Default : Нет
Forced : Нет
Меню
00:00:00.000 : en:Chapter 01
00:07:33.411 : en:Chapter 02
00:12:00.301 : en:Chapter 03
00:12:59.444 : en:Chapter 04
00:15:55.369 : en:Chapter 05
00:20:56.921 : en:Chapter 06
00:23:15.434 : en:Chapter 07
00:25:52.675 : en:Chapter 08
00:29:59.255 : en:Chapter 09
00:38:14.041 : en:Chapter 10
00:46:43.841 : en:Chapter 11
00:49:46.314 : en:Chapter 12
00:53:19.528 : en:Chapter 13
00:55:10.221 : en:Chapter 14
00:58:07.858 : en:Chapter 15
01:08:42.325 : en:Chapter 16
01:12:22.336 : en:Chapter 17
01:15:45.707 : en:Chapter 18
01:19:10.162 : en:Chapter 19
01:22:46.835 : en:Chapter 20
01:25:09.686 : en:Chapter 21
01:28:07.738 : en:Chapter 22
01:31:15.552 : en:Chapter 23
01:36:02.755 : en:Chapter 24
01:37:35.889 : en:Chapter 25
01:40:35.404 : en:Chapter 26
01:45:16.518 : en:Chapter 27
01:48:44.475 : en:Chapter 28
01:50:31.750 : en:Chapter 29
01:52:36.540 : en:Chapter 30
01:53:08.448 : en:Chapter 31
01:59:16.356 : en:Chapter 32
02:07:11.832 : en:Chapter 33
02:07:39.109 : en:Chapter 34
02:09:22.671 : en:Chapter 35
02:12:48.584 : en:Chapter 36
02:22:00.843 : en:Chapter 37
02:22:43.429 : en:Chapter 38
02:23:17.922 : en:Chapter 39
02:24:56.396 : en:Chapter 40
02:26:45.085 : en:Chapter 41
02:29:18.824 : en:Chapter 42
02:33:12.975 : en:Chapter 43
02:34:57.620 : en:Chapter 44
02:36:13.155 : en:Chapter 45
02:37:45.956 : en:Chapter 46
02:39:08.829 : en:Chapter 47
02:41:39.940 : en:Chapter 48
02:44:06.002 : en:Chapter 49
02:51:16.683 : en:Chapter 50
02:56:05.555 : en:Chapter 51
03:06:34.600 : en:Chapter 52

Скриншоты



[Профиль] [ЛС]
Кто просматривает тему:

Форум Тема Автор Размер
Da Vinci Learning Da Vinci Learning: Тайна Хоббита / The Hobbit Enigma (Simon Nasht, Annamaria Talas) [2008 г., Локументальный, научно-популярный, археология, антропология, SATRip] skorpionN 843 MB
Разное Журнал | М-Хобби №3 (165) (март 2015) [PDF] достали все 55 MB
Техника и моделирование Сборник журналов "М-Хобби" [01-176] (1993-2016) PDF (обновление от 07.02.2016) Garik014 7.84 GB
Фантастика и фэнтези Толкиен Джон Р. Р. - «Хоббит, или туда и обратно». Трилогия «Властелин колец» [Гришина Анна, Стабуров Роман, Ярмолинец Семён, 2004, фэнтэзи, 256 kbps] Garik014 3.69 GB
Фильмы (HD Rips | 720p, 1080p) Хоббит / The Hobbit: Дилогия (2012-2013) BDRip 1080p | 60 fps | D | Extended Cut sergej644 41.07 GB
Фильмы 2015 года Хоббит и Несносный Супердед / The Hobbit: The Desolation of Smaug (2015) HDRip | Смешной перевод достали все 1.67 GB
Фильмы 2016 года Хоббит и шоколадная фабрика / The Hobbit: The Desolation of Smaug (2016) HDRip | Смешной перевод BOSS 1.78 GB
Фильмы 2013 года Хоббит с татуировкой дракона / The Hobbit: An Unexpected Journey (2013) DVDRip | Смешной перевод Белочка 703 MB
Показать сообщения:    

Текущее время: Сегодня 18:01

Часовой пояс: GMT



Вы не можете начинать темы
Вы не можете отвечать на сообщения
Вы не можете редактировать свои сообщения
Вы не можете удалять свои сообщения
Вы не можете голосовать в опросах
Вы не можете прикреплять файлы к сообщениям
Вы не можете скачивать файлы