Хоббит: Пустошь Смауга / The Hobbit: The Desolation of Smaug (Питер Джексон / Peter Jackson) [2013, США, Новая Зеландия, фэнтези, приключения, BDRip 720p] Dub + AVO (Сербин) + Sub (Rus, Ukr, Eng) + Original Eng + Ukr

 
Автор Сообщение

reversefile ®

Пол:

Стаж: 4 года 5 месяцев

Сообщений: 842

Откуда: ReverseFile.org



Награды: Нет

Торрент-статистика

Создавать темы 22-Июл-2014 01:05

[Цитировать]

Хоббит: Пустошь Смауга / The Hobbit: The Desolation of Smaug Страна: США, Новая Зеландия
Студия: Metro-Goldwyn-Mayer (MGM), New Line Cinema, WingNut Films
Жанр: фэнтези, приключения
Год выпуска: 2013
Продолжительность: 02:41:17
Перевод 1: Профессиональный (дублированный) Blu-ray CEE
Перевод 2: Авторский (одноголосый закадровый) Ю. Сербин
Cубтитры: русские(forced, BD CEE, iTunes, Notabenoid), украинские(forced, iTunes), английские(full, SDH, SDH Colored)
Оригинальная аудиодорожка: английский
Режиссер: Питер Джексон / Peter Jackson
В ролях: Мартин Фриман, Ричард Армитедж, Иэн МакКеллен, Эванджелин Лилли, Орландо Блум, Люк Эванс, Бенедикт Камбербэтч, Ли Пейс, Кен Стотт, Эйдан Тернер
Описание: Продолжение путешествия хоббита Бильбо Бэггинса, волшебника Гэндальфа и 13 отважных гномов. Их компания обязана завершить своё путешествие к Одинокой горе. Там они должны встретиться с величайшей опасностью из всех — созданием куда более ужасающим, чем все их прошлые противники, которое проверит на прочность не только их мужество, но крепость их дружбы и правильность выбранного пути, — драконом Смаугом.

Тип релиза: BDRip 720p[EbP]
Контейнер: MKV
Видео: AVC, 1280x534, 6024 kbps, 23.976 fps
Аудио 1: Russian: 48 kHz, AC3, 3/2 (L,C,R,l,r) + LFE ch, ~448.00 kbps avg |Blu-ray CEE|
Аудио 2: Ukrainian: 48 kHz, AC3, 3/2 (L,C,R,l,r) + LFE ch, ~448.00 kbps avg |Blu-ray CEE|
Аудио 3: Russian: 48 kHz, AC3, 3/2 (L,C,R,l,r) + LFE ch, ~640.00 kbps avg |Сербин|
Аудио 4: English: 48 kHz, AC3, 3/2 (L,C,R,l,r) + LFE ch, ~640.00 kbps avg |Original|
Чаптеры:есть

x264 log

x264 [info]: frame I:2039 Avg QP:13.11 size:121968
x264 [info]: frame P:54265 Avg QP:14.70 size: 57133
x264 [info]: frame B:175711 Avg QP:15.87 size: 23450
x264 [info]: consecutive B-frames: 2.5% 4.3% 7.0% 34.5% 14.6% 25.7% 4.2% 5.3% 0.7% 0.4% 0.8%

Доп.информация

За перевод Сербина спасибо пользователям форума hdtracker: KpucTo161, Role, _MyxAmoP_, rebz9i, Shumway, -Джосс-, v111o, Gross1978, HDKing, Kerk, iogan111; пользователям форума e180: oleg-k, KINOGON, denis_mgn_1987, xerman13, vik19662007, idalgo, masta, luka69, DMX-92, Serene, ultrajeka, blackmore, Letyoha3, Slimka, ZeDOK, DVD100, carnivale, zaq-qaz, HPotter, phaeton77, Ramis, Loki1982, STONECOLD, Foots, YoGuRt, DB73, Водолей, semargl, dir, Tio, matrox, ilbilb, Skoped, kRIPtograf, iogan111, Palmer Eldritch, Roman Lee, Andrey_Tula, ValK, Iceman, Bilko, пуля; пользователям HDCLUB: banan87, tambov68, lemonarium, DaviD18_85, RAUL.

MediaInfo

General
Unique ID : 223129573866353136783768714898297398707 (0xA7DD3159F2DA05F8839F7CBADF6D25B3)
Complete name : D:\The.Hobbit.The.Desolation.of.Smaug.2013.720p.BluRay-Talian-.mkv
Format : Matroska
Format version : Version 2
File size : 9.41 GiB
Duration : 2h 41mn
Overall bit rate : 8 354 Kbps
Movie name : -Talian-
Encoded date : UTC 2014-07-14 18:34:51
Writing application : mkvmerge v5.7.0 ('The Whirlwind') built on Jul 8 2012 20:08:51
Writing library : libebml v1.2.3 + libmatroska v1.3.0
Video
ID : 1
Format : AVC
Format/Info : Advanced Video Codec
Format profile : High@L4.1
Format settings, CABAC : Yes
Format settings, ReFrames : 12 frames
Codec ID : V_MPEG4/ISO/AVC
Duration : 2h 41mn
Bit rate : 6 011 Kbps
Width : 1 280 pixels
Height : 534 pixels
Display aspect ratio : 2.40:1
Original display aspect ratio : 2.40:1
Frame rate : 23.976 fps
Color space : YUV
Chroma subsampling : 4:2:0
Bit depth : 8 bits
Scan type : Progressive
Bits/(Pixel*Frame) : 0.367
Stream size : 6.77 GiB (72%)
Title : EbP
Writing library : x264 core 142 r2409kMod d6b4e63
Encoding settings : cabac=1 / ref=12 / deblock=1:-3:-3 / analyse=0x3:0x133 / me=umh / subme=10 / psy=1 / fade_compensate=0.00 / psy_rd=0.95:0.00 / mixed_ref=1 / me_range=32 / chroma_me=1 / trellis=2 / 8x8dct=1 / cqm=0 / deadzone=21,11 / fast_pskip=0 / chroma_qp_offset=-2 / threads=6 / lookahead_threads=1 / sliced_threads=0 / nr=0 / decimate=0 / interlaced=0 / bluray_compat=0 / constrained_intra=0 / fgo=0 / bframes=10 / b_pyramid=2 / b_adapt=2 / b_bias=0 / direct=3 / weightb=1 / open_gop=0 / weightp=2 / keyint=250 / keyint_min=23 / scenecut=40 / intra_refresh=0 / rc_lookahead=60 / rc=crf / mbtree=0 / crf=15.0000 / qcomp=0.60 / qpmin=0 / qpmax=69 / qpstep=4 / vbv_maxrate=62500 / vbv_bufsize=78125 / crf_max=0.0 / nal_hrd=none / filler=0 / ip_ratio=1.30 / pb_ratio=1.20 / aq=1:0.90 / zones=8544,8574,crf=14.5/8607,8719,crf=14.5/9226,9283,crf=14.5/11964,12179,crf=14.5/14648,14714,crf=14.5/18743,18850,crf=14.5/19026,19055,crf=14.5/19904,20283,crf=14.5/80563,80627,crf=14.5/80629,82603,crf=14.5/119407,119424,crf=14.5/141029,141084,crf=14.5/154067,154365,crf=14.5/167854,167923,crf=14.5/202994,203486,crf=14.5/215472,215768,crf=14.5
Language : English
Default : Yes
Forced : No
Color primaries : BT.709-5, BT.1361, IEC 61966-2-4, SMPTE RP177
Transfer characteristics : BT.709-5, BT.1361
Matrix coefficients : BT.709-5, BT.1361, IEC 61966-2-4 709, SMPTE RP177
Audio #1
ID : 2
Format : AC-3
Format/Info : Audio Coding 3
Mode extension : CM (complete main)
Format settings, Endianness : Big
Codec ID : A_AC3
Duration : 2h 41mn
Bit rate mode : Constant
Bit rate : 448 Kbps
Channel(s) : 6 channels
Channel positions : Front: L C R, Side: L R, LFE
Sampling rate : 48.0 KHz
Bit depth : 16 bits
Compression mode : Lossy
Stream size : 517 MiB (5%)
Title : DUB-Blu-ray CEE
Language : Russian
Default : Yes
Forced : No
Audio #2
ID : 3
Format : AC-3
Format/Info : Audio Coding 3
Mode extension : CM (complete main)
Format settings, Endianness : Big
Codec ID : A_AC3
Duration : 2h 41mn
Bit rate mode : Constant
Bit rate : 448 Kbps
Channel(s) : 6 channels
Channel positions : Front: L C R, Side: L R, LFE
Sampling rate : 48.0 KHz
Bit depth : 16 bits
Compression mode : Lossy
Stream size : 517 MiB (5%)
Title : DUB-Blu-ray CEE
Language : Ukrainian
Default : No
Forced : No
Audio #3
ID : 4
Format : AC-3
Format/Info : Audio Coding 3
Mode extension : CM (complete main)
Format settings, Endianness : Big
Codec ID : A_AC3
Duration : 2h 41mn
Bit rate mode : Constant
Bit rate : 640 Kbps
Channel(s) : 6 channels
Channel positions : Front: L C R, Side: L R, LFE
Sampling rate : 48.0 KHz
Bit depth : 16 bits
Compression mode : Lossy
Stream size : 738 MiB (8%)
Title : AVO-Сербин
Language : Russian
Default : No
Forced : No
Audio #4
ID : 5
Format : AC-3
Format/Info : Audio Coding 3
Mode extension : CM (complete main)
Format settings, Endianness : Big
Codec ID : A_AC3
Duration : 2h 41mn
Bit rate mode : Constant
Bit rate : 640 Kbps
Channel(s) : 6 channels
Channel positions : Front: L C R, Side: L R, LFE
Sampling rate : 48.0 KHz
Bit depth : 16 bits
Compression mode : Lossy
Stream size : 738 MiB (8%)
Title : Original
Language : English
Default : No
Forced : No
Text #1
ID : 6
Format : UTF-8
Codec ID : S_TEXT/UTF8
Codec ID/Info : UTF-8 Plain Text
Title : Sub-forced
Language : Russian
Default : Yes
Forced : No
Text #2
ID : 7
Format : UTF-8
Codec ID : S_TEXT/UTF8
Codec ID/Info : UTF-8 Plain Text
Title : Sub- BD CEE
Language : Russian
Default : No
Forced : No
Text #3
ID : 8
Format : UTF-8
Codec ID : S_TEXT/UTF8
Codec ID/Info : UTF-8 Plain Text
Title : Sub-iTunes
Language : Russian
Default : No
Forced : No
Text #4
ID : 9
Format : UTF-8
Codec ID : S_TEXT/UTF8
Codec ID/Info : UTF-8 Plain Text
Title : Sub-Notabenoid
Language : Russian
Default : No
Forced : No
Text #5
ID : 10
Format : UTF-8
Codec ID : S_TEXT/UTF8
Codec ID/Info : UTF-8 Plain Text
Title : Sub-forced
Language : Ukrainian
Default : No
Forced : No
Text #6
ID : 11
Format : UTF-8
Codec ID : S_TEXT/UTF8
Codec ID/Info : UTF-8 Plain Text
Title : Sub-iTunes
Language : Ukrainian
Default : No
Forced : No
Text #7
ID : 12
Format : UTF-8
Codec ID : S_TEXT/UTF8
Codec ID/Info : UTF-8 Plain Text
Title : Sub-full
Language : English
Default : No
Forced : No
Text #8
ID : 13
Format : UTF-8
Codec ID : S_TEXT/UTF8
Codec ID/Info : UTF-8 Plain Text
Title : Sub-SDH
Language : English
Default : No
Forced : No
Text #9
ID : 14
Format : UTF-8
Codec ID : S_TEXT/UTF8
Codec ID/Info : UTF-8 Plain Text
Title : Sub-SDH Colored
Language : English
Default : No
Forced : No
Menu
00:00:00.000 : en:00:00:00.000
00:05:44.094 : en:00:05:44.094
00:10:10.985 : en:00:10:10.985
00:11:10.128 : en:00:11:10.128
00:13:50.204 : en:00:13:50.204
00:17:12.657 : en:00:17:12.657
00:21:25.326 : en:00:21:25.326
00:24:33.472 : en:00:24:33.472
00:33:03.273 : en:00:33:03.273
00:36:05.747 : en:00:36:05.747
00:39:38.960 : en:00:39:38.960
00:41:29.654 : en:00:41:29.654
00:44:27.290 : en:00:44:27.290
00:55:01.757 : en:00:55:01.757
00:58:41.768 : en:00:58:41.768
01:02:05.138 : en:01:02:05.138
01:05:29.592 : en:01:05:29.592
01:09:06.267 : en:01:09:06.267
01:11:29.118 : en:01:11:29.118
01:13:11.762 : en:01:13:11.762
01:19:14.959 : en:01:19:14.959
01:20:48.469 : en:01:20:48.469
01:23:12.529 : en:01:23:12.529
01:27:09.641 : en:01:27:09.641
01:30:45.482 : en:01:30:45.482
01:33:29.813 : en:01:33:29.813
01:41:57.194 : en:01:41:57.194
01:42:24.472 : en:01:42:24.472
01:44:08.033 : en:01:44:08.033
01:47:34.114 : en:01:47:34.114
01:56:46.333 : en:01:56:46.333
01:57:28.917 : en:01:57:28.917
01:58:03.410 : en:01:58:03.410
01:59:42.300 : en:01:59:42.300
02:01:30.575 : en:02:01:30.575
02:04:04.312 : en:02:04:04.312
02:07:58.462 : en:02:07:58.462
02:09:43.109 : en:02:09:43.109
02:10:58.642 : en:02:10:58.642
02:12:31.443 : en:02:12:31.443
02:13:54.318 : en:02:13:54.318
02:16:25.427 : en:02:16:25.427
02:18:51.490 : en:02:18:51.490
02:26:03.588 : en:02:26:03.588
02:30:51.209 : en:02:30:51.209

Скриншоты

Source vs Encode


[Профиль] [ЛС]
Кто просматривает тему:

Форум Тема Автор Размер
Da Vinci Learning Da Vinci Learning: Тайна Хоббита / The Hobbit Enigma (Simon Nasht, Annamaria Talas) [2008 г., Локументальный, научно-популярный, археология, антропология, SATRip] skorpionN 843 MB
Разное Журнал | М-Хобби №3 (165) (март 2015) [PDF] достали все 55 MB
Техника и моделирование Сборник журналов "М-Хобби" [01-176] (1993-2016) PDF (обновление от 07.02.2016) Garik014 7.84 GB
Фантастика и фэнтези Толкиен Джон Р. Р. - «Хоббит, или туда и обратно». Трилогия «Властелин колец» [Гришина Анна, Стабуров Роман, Ярмолинец Семён, 2004, фэнтэзи, 256 kbps] Garik014 3.69 GB
Фильмы (HD Rips | 720p, 1080p) Хоббит / The Hobbit: Дилогия (2012-2013) BDRip 1080p | 60 fps | D | Extended Cut sergej644 41.07 GB
Фильмы 2015 года Хоббит и Несносный Супердед / The Hobbit: The Desolation of Smaug (2015) HDRip | Смешной перевод достали все 1.67 GB
Фильмы 2016 года Хоббит и шоколадная фабрика / The Hobbit: The Desolation of Smaug (2016) HDRip | Смешной перевод BOSS 1.78 GB
Фильмы 2013 года Хоббит с татуировкой дракона / The Hobbit: An Unexpected Journey (2013) DVDRip | Смешной перевод Белочка 703 MB
Показать сообщения:    

Текущее время: Сегодня 13:50

Часовой пояс: GMT



Вы не можете начинать темы
Вы не можете отвечать на сообщения
Вы не можете редактировать свои сообщения
Вы не можете удалять свои сообщения
Вы не можете голосовать в опросах
Вы не можете прикреплять файлы к сообщениям
Вы не можете скачивать файлы