Хоббит: Битва пяти воинств / The Hobbit: The Battle of the Five Armies (2014) BDRip 720p от BlueBird | Extended Cut | iTunes

 
Автор Сообщение

BOSS ®

Пол:

Стаж: 2 года 1 месяц

Сообщений: 3738

Откуда: ODESSA



Награды: 20 (Подробнее)

Top Seeder 3 (Количество: 1) Top Seeder 5 (Количество: 1) Mega Releaser 2 (Количество: 1)
Торрент-статистика

Создавать темы 13-Ноя-2015 18:51

[Цитировать]

Информация о фильме
Название: Хоббит: Битва пяти воинств
Оригинальное название: The Hobbit: The Battle of the Five Armies
Год выхода: 2014
Жанр: фэнтези, приключения
Режиссер: Питер Джексон
В ролях: Мартин Фриман, Иэн МакКеллен, Ричард Армитедж, Люк Эванс, Эванджелин Лилли, Ли Пейс, Орландо Блум, Бенедикт Камбербэтч, Кен Стотт, Эйдан Тернер
О фильме: Когда отряд из тринадцати гномов нанимал хоббита Бильбо Бэгинса в качестве взломщика и четырнадцатого, «счастливого», участника похода к Одинокой горе, Бильбо полагал, что его приключения закончатся, когда он выполнит свою задачу — найдет сокровище, которое так необходимо предводителю гномов Торину. Путешествие в Эребор, захваченное драконом Смаугом королевство гномов, оказалось еще более опасным, чем предполагали гномы и даже Гэндальф — мудрый волшебник, протянувший Торину и его отряду руку помощи.
В погоню за гномами устремилась армия орков, ведомых пробудившимся в руинах древним злом, а эльфы и люди, с которыми Бильбо и его товарищам пришлось иметь дело во время путешествия и которые пострадали от последствий желания гномов вернуть свой дом, предъявили права на щедрое вознаграждение — часть сокровищ Одинокой горы. Скоро неподалеку от Одинокой горы встретятся пять армий, и лишь кровопролитная битва определит результаты смелого гномьего похода.

Страна: Новая Зеландия, США
Студия: New Line Cinema, Metro-Goldwyn-Mayer
Продолжительность: 02:44:02
Перевод: Профессиональный (дублированный) iTunes Russia
Примечание: Extended версия длиннее театральной на ~20 минут. Полный дубляж.
Релиз:
Файл
Формат: Matroska
Видео: 1280x534 at 23.976 fps, MPEG-4 AVC, ~6100 kbps avg
Aудио#1: Russian: 48 kHz, AC3, 3/2 (L,C,R,l,r) + LFE ch, ~384.00 kbps avg |Дубляж, iTunes Russia|
Aудио#2: English: 48 kHz, DTS, 3/2 (L,C,R,l,r) + LFE ch, ~1510 kbps avg
Aудио#3: English: 48 kHz, AC3, 2/0 (L,R) ch, ~192.00 kbps avg |Commentary|
Субтитры: Russian (Forced, iTunes), Russian (iTunes), Ukrainian (iTunes), English

MI

Общее
Уникальный идентификатор : 212297577703673628766026132559307765518 (0x9FB706B52D40BE1F9235472B3154770E)
Полное имя : The.Hobbit.The.Battle.of.the.Five.Armies.2014.EXTENDED.2014.BDRip.720p.BLUEBIRD.mkv
Формат : Matroska
Версия формата : Version 2
Размер файла : 9,38 Гбайт
Продолжительность : 2 ч. 44 м.
Общий поток : 8187 Кбит/сек
Название фильма : BLUEBIRD
Дата кодирования : UTC 2015-11-13 13:14:01
Программа кодирования : mkvmerge v7.9.0 ('Birds') 64bit
Библиотека кодирования : libebml v1.3.1 + libmatroska v1.4.2
Видео
Идентификатор : 1
Формат : AVC
Формат/Информация : Advanced Video Codec
Профиль формата : High@L4.1
Параметр CABAC формата : Да
Параметр ReFrames формата : 12 кадров
Идентификатор кодека : V_MPEG4/ISO/AVC
Продолжительность : 2 ч. 44 м.
Битрейт : 6100 Кбит/сек
Ширина : 1280 пикселей
Высота : 534 пикселя
Соотношение сторон : 2,40:1
Режим частоты кадров : Постоянный
Частота кадров : 23,976 кадра/сек
Цветовое пространство : YUV
Субдискретизация насыщенности : 4:2:0
Битовая глубина : 8 бит
Тип развёртки : Прогрессивная
Бит/(Пиксели*Кадры) : 0.372
Размер потока : 6,81 Гбайт (73%)
Заголовок : BLUEBIRD
Библиотека кодирования : x264 core 148 r2638 7599210
Настройки программы : cabac=1 / ref=12 / deblock=1:-3:-3 / analyse=0x3:0x113 / me=umh / subme=11 / psy=1 / psy_rd=1.00:0.00 / mixed_ref=1 / me_range=32 / chroma_me=1 / trellis=2 / 8x8dct=1 / cqm=0 / deadzone=21,11 / fast_pskip=0 / chroma_qp_offset=-2 / threads=12 / lookahead_threads=2 / sliced_threads=0 / nr=0 / decimate=0 / interlaced=0 / bluray_compat=0 / constrained_intra=0 / bframes=9 / b_pyramid=2 / b_adapt=2 / b_bias=0 / direct=3 / weightb=1 / open_gop=1 / weightp=2 / keyint=240 / keyint_min=23 / scenecut=40 / intra_refresh=0 / rc=2pass / mbtree=0 / bitrate=6100 / ratetol=1.0 / qcomp=0.60 / qpmin=0 / qpmax=69 / qpstep=4 / cplxblur=20.0 / qblur=0.5 / ip_ratio=1.40 / pb_ratio=1.30 / aq=3:0.80
Язык : English
Default : Да
Forced : Нет
Аудио #1
Идентификатор : 2
Формат : AC-3
Формат/Информация : Audio Coding 3
Расширение режима : CM (complete main)
Параметр Endianness формата : Big
Идентификатор кодека : A_AC3
Продолжительность : 2 ч. 44 м.
Вид битрейта : Постоянный
Битрейт : 384 Кбит/сек
Каналы : 6 каналов
Расположение каналов : Front: L C R, Side: L R, LFE
Частота : 48,0 КГц
Метод сжатия : С потерями
Размер потока : 451 Мбайт (5%)
Заголовок : iTunes
Язык : Russian
Default : Да
Forced : Нет
Аудио #2
Идентификатор : 3
Формат : DTS
Формат/Информация : Digital Theater Systems
Режим : 16
Параметр Endianness формата : Big
Идентификатор кодека : A_DTS
Продолжительность : 2 ч. 44 м.
Вид битрейта : Постоянный
Битрейт : 1509 Кбит/сек
Каналы : 6 каналов
Расположение каналов : Front: L C R, Side: L R, LFE
Частота : 48,0 КГц
Битовая глубина : 24 бит
Метод сжатия : С потерями
Размер потока : 1,73 Гбайт (18%)
Заголовок : Original
Язык : English
Default : Нет
Forced : Нет
Аудио #3
Идентификатор : 4
Формат : AC-3
Формат/Информация : Audio Coding 3
Профиль формата : Dolby Digital
Расширение режима : CM (complete main)
Параметр Endianness формата : Big
Идентификатор кодека : A_AC3
Продолжительность : 2 ч. 44 м.
Вид битрейта : Постоянный
Битрейт : 192 Кбит/сек
Каналы : 2 канала
Расположение каналов : Front: L R
Частота : 48,0 КГц
Метод сжатия : С потерями
Размер потока : 225 Мбайт (2%)
Заголовок : Commentary
Язык : English
Default : Нет
Forced : Нет
Текст #1
Идентификатор : 5
Формат : UTF-8
Идентификатор кодека : S_TEXT/UTF8
Идентификатор кодека/Информация : UTF-8 Plain Text
Заголовок : Forced
Язык : Russian
Default : Да
Forced : Нет
Текст #2
Идентификатор : 6
Формат : UTF-8
Идентификатор кодека : S_TEXT/UTF8
Идентификатор кодека/Информация : UTF-8 Plain Text
Заголовок : Full
Язык : Russian
Default : Нет
Forced : Нет
Текст #3
Идентификатор : 7
Формат : UTF-8
Идентификатор кодека : S_TEXT/UTF8
Идентификатор кодека/Информация : UTF-8 Plain Text
Заголовок : Full
Язык : Ukrainian
Default : Нет
Forced : Нет
Текст #4
Идентификатор : 8
Формат : UTF-8
Идентификатор кодека : S_TEXT/UTF8
Идентификатор кодека/Информация : UTF-8 Plain Text
Язык : English
Default : Нет
Forced : Нет
Текст #5
Идентификатор : 9
Формат : UTF-8
Идентификатор кодека : S_TEXT/UTF8
Идентификатор кодека/Информация : UTF-8 Plain Text
Язык : English
Default : Нет
Forced : Нет
Меню
00:00:00.000 : en:Chapter 1
00:05:12.395 : en:Chapter 2
00:12:47.057 : en:Chapter 3
00:13:19.298 : en:Chapter 4
00:18:57.427 : en:Chapter 5
00:23:42.170 : en:Chapter 6
00:24:56.161 : en:Chapter 7
00:26:04.563 : en:Chapter 8
00:27:33.026 : en:Chapter 9
00:35:45.685 : en:Chapter 10
00:36:41.282 : en:Chapter 11
00:40:41.897 : en:Chapter 12
00:42:01.143 : en:Chapter 13
00:43:11.755 : en:Chapter 14
00:46:16.148 : en:Chapter 15
00:51:27.667 : en:Chapter 16
00:54:57.961 : en:Chapter 17
00:56:14.829 : en:Chapter 18
00:58:31.299 : en:Chapter 19
01:00:26.956 : en:Chapter 20
01:02:43.593 : en:Chapter 21
01:06:10.174 : en:Chapter 22
01:12:23.297 : en:Chapter 23
01:17:22.554 : en:Chapter 24
01:20:36.331 : en:Chapter 25
01:24:57.217 : en:Chapter 26
01:28:41.774 : en:Chapter 27
01:30:52.280 : en:Chapter 28
01:33:02.159 : en:Chapter 29
01:35:12.832 : en:Chapter 30
01:38:32.489 : en:Chapter 31
01:39:42.893 : en:Chapter 32
01:41:00.596 : en:Chapter 33
01:45:03.505 : en:Chapter 34
01:47:13.635 : en:Chapter 35
01:49:05.288 : en:Chapter 36
01:50:03.013 : en:Chapter 37
01:52:59.606 : en:Chapter 38
01:53:51.282 : en:Chapter 39
01:57:15.236 : en:Chapter 40
02:05:38.572 : en:Chapter 41
02:12:07.044 : en:Chapter 42
02:15:26.243 : en:Chapter 43
02:18:32.512 : en:Chapter 44
02:20:07.440 : en:Chapter 45
02:22:27.205 : en:Chapter 46
02:26:11.596 : en:Chapter 47
02:30:54.462 : en:Chapter 48

Скриншоты


[Профиль] [ЛС]
Кто просматривает тему:

Форум Тема Автор Размер
Da Vinci Learning Da Vinci Learning: Тайна Хоббита / The Hobbit Enigma (Simon Nasht, Annamaria Talas) [2008 г., Локументальный, научно-популярный, археология, антропология, SATRip] skorpionN 843 MB
Разное Журнал | М-Хобби №3 (165) (март 2015) [PDF] достали все 55 MB
Техника и моделирование Сборник журналов "М-Хобби" [01-176] (1993-2016) PDF (обновление от 07.02.2016) Garik014 7.84 GB
Фантастика и фэнтези Толкиен Джон Р. Р. - «Хоббит, или туда и обратно». Трилогия «Властелин колец» [Гришина Анна, Стабуров Роман, Ярмолинец Семён, 2004, фэнтэзи, 256 kbps] Garik014 3.69 GB
Фильмы (HD Rips | 720p, 1080p) Хоббит / The Hobbit: Дилогия (2012-2013) BDRip 1080p | 60 fps | D | Extended Cut sergej644 41.07 GB
Фильмы 2015 года Хоббит и Несносный Супердед / The Hobbit: The Desolation of Smaug (2015) HDRip | Смешной перевод достали все 1.67 GB
Фильмы 2016 года Хоббит и шоколадная фабрика / The Hobbit: The Desolation of Smaug (2016) HDRip | Смешной перевод BOSS 1.78 GB
Фильмы 2013 года Хоббит с татуировкой дракона / The Hobbit: An Unexpected Journey (2013) DVDRip | Смешной перевод Белочка 703 MB
Показать сообщения:    

Текущее время: Сегодня 20:26

Часовой пояс: GMT



Вы не можете начинать темы
Вы не можете отвечать на сообщения
Вы не можете редактировать свои сообщения
Вы не можете удалять свои сообщения
Вы не можете голосовать в опросах
Вы не можете прикреплять файлы к сообщениям
Вы не можете скачивать файлы