Хлоя и Тео / Chloe and Theo (2015) BDRip 1080p | P

 
Автор Сообщение

BOSS ®

Пол:

Стаж: 2 года 1 месяц

Сообщений: 3712

Откуда: ODESSA



Награды: 20 (Подробнее)

Top Keeper 2 (Количество: 1) Top Seeder 3 (Количество: 1) Top Seeder 4 (Количество: 1)
Торрент-статистика

Создавать темы 20-Окт-2015 15:28

[Цитировать]

Информация о фильме
Название: Хлоя и Тео
Оригинальное название: Chloe and Theo
Год выхода: 2015
Жанр: Драма
Режиссер: Эзна Сэндс
В ролях: Дакота Джонсон, Мира Сорвино, Лори Тан Чинн, Адриан Мартинес, Кристофер Бакус, Элизабет Масуччи, Ларри Кинг, Эшли Спрингер, Николь Зиоли, Джесика Андерсон, Брэндон Бойд, Андре Де Шилдс, Паркер Сноу, Мишель Кэмпбелл, Кевин Уитт, Куинси Чад Френсис, Хассан Мэннинг, Дион Сапп, Ларри Баллард, Эрик Орам, Майкл Морана, Рути Каминскас, Юджин Ипкарнак, Мелисса Джексон, Эрве Паниак, Джонатан Мэйсон, Энтони Куорлз, Джон Новак, Наталино Пиугаттук, Д.В. Вон Браун
О фильме:
Эскимос Тео, из Арктики, едет в Нью-Йорк, чтобы предупредить мировых лидеров о катастрофическом влиянии глобального потепления на планете. По прибытии он встречает бездомную девушку по имени Хлоя, которая решила ему в этом помочь. Вместе они изменят мир.

Страна: США, Канада
Студия: Arctica Films
Продолжительность: 01:21:42
Перевод: Профессиональный многоголосый
Файл
Кодек: MPEG-4 AVC
Качество: BDRip 1080p
Видео: 9258 Кбит/с, 1920x816
Звук: Русский (AC3, 2 ch, 192 Кбит/с), английский (AC3, 6 ch, 640 Кбит/с)
Субтитры: Английские

Релиз

Рип от StarbirS
Аудио#1: Russian: 48 kHz, AC3, 2 (L,R) ch, ~192.00 kbps avg - Профессиональный многоголосый
Аудио#2: English: AC3, 48 kHz, AC3, 3/2 (L,C,R,l,r) + LFE ch, ~640.00 kbps avg - Оригинал
Субтитры: Английские

Инфо-файл

Формат : Matroska
Версия формата : Version 2
Размер файла : 5,75 Гбайт
Продолжительность : 1 ч. 21 м.
Общий поток : 10,1 Мбит/сек
Название фильма : Chloe.and.Theo.2015.x264.BDRip.1080p.Rus.Eng
Дата кодирования : UTC 2015-10-20 12:17:41
Программа кодирования : mkvmerge v7.9.0 ('Birds') 64bit
Библиотека кодирования : libebml v1.3.1 + libmatroska v1.4.2
Видео
Идентификатор : 1
Формат : AVC
Формат/Информация : Advanced Video Codec
Профиль формата : High@L4.1
Параметр CABAC формата : Да
Параметр ReFrames формата : 5 кадров
Идентификатор кодека : V_MPEG4/ISO/AVC
Продолжительность : 1 ч. 21 м.
Битрейт : 9258 Кбит/сек
Ширина : 1920 пикселей
Высота : 816 пикселей
Соотношение сторон : 2,35:1
Режим частоты кадров : Постоянный
Частота кадров : 23,976 кадра/сек
Цветовое пространство : YUV
Субдискретизация насыщенности : 4:2:0
Битовая глубина : 8 бит
Тип развёртки : Прогрессивная
Бит/(Пиксели*Кадры) : 0.246
Размер потока : 5,16 Гбайт (90%)
Заголовок : Chloe.and.Theo.2015.x264.BDRip.1080p.Rus.Eng.by.StarbirS
Библиотека кодирования : x264 core 148 r2597 e86f3a1
Настройки программы : cabac=1 / ref=5 / deblock=1:-2:-2 / analyse=0x3:0x113 / me=umh / subme=10 / psy=1 / psy_rd=1.00:0.15 / mixed_ref=1 / me_range=48 / chroma_me=1 / trellis=2 / 8x8dct=1 / cqm=0 / deadzone=21,11 / fast_pskip=0 / chroma_qp_offset=-3 / threads=12 / lookahead_threads=2 / sliced_threads=0 / nr=0 / decimate=0 / interlaced=0 / bluray_compat=0 / constrained_intra=0 / bframes=8 / b_pyramid=2 / b_adapt=2 / b_bias=0 / direct=3 / weightb=1 / open_gop=1 / weightp=2 / keyint=240 / keyint_min=23 / scenecut=40 / intra_refresh=0 / rc=2pass / mbtree=0 / bitrate=9258 / ratetol=1.0 / qcomp=0.60 / qpmin=0 / qpmax=69 / qpstep=4 / cplxblur=20.0 / qblur=0.5 / ip_ratio=1.40 / pb_ratio=1.30 / aq=1:0.80
Язык : English
Default : Да
Forced : Нет
Аудио #1
Идентификатор : 2
Формат : AC-3
Формат/Информация : Audio Coding 3
Расширение режима : CM (complete main)
Параметр Endianness формата : Big
Идентификатор кодека : A_AC3
Продолжительность : 1 ч. 21 м.
Вид битрейта : Постоянный
Битрейт : 192 Кбит/сек
Каналы : 2 канала
Расположение каналов : Front: L R
Частота : 48,0 КГц
Метод сжатия : С потерями
Размер потока : 112 Мбайт (2%)
Заголовок : Профессиональный многоголосый
Язык : Russian
Default : Да
Forced : Нет
Аудио #2
Идентификатор : 3
Формат : AC-3
Формат/Информация : Audio Coding 3
Расширение режима : CM (complete main)
Параметр Endianness формата : Big
Идентификатор кодека : A_AC3
Продолжительность : 1 ч. 21 м.
Вид битрейта : Постоянный
Битрейт : 640 Кбит/сек
Каналы : 6 каналов
Расположение каналов : Front: L C R, Side: L R, LFE
Частота : 48,0 КГц
Метод сжатия : С потерями
Размер потока : 374 Мбайт (6%)
Язык : English
Default : Нет
Forced : Нет
Текст
Идентификатор : 4
Формат : UTF-8
Идентификатор кодека : S_TEXT/UTF8
Идентификатор кодека/Информация : UTF-8 Plain Text
Язык : English
Default : Нет
Forced : Нет
Меню
00:00:00.000 : en:Chapter 01
00:05:13.688 : en:Chapter 02
00:08:56.744 : en:Chapter 03
00:15:44.610 : en:Chapter 04
00:22:43.570 : en:Chapter 05
00:29:27.974 : en:Chapter 06
00:38:15.918 : en:Chapter 07
00:44:45.099 : en:Chapter 08
00:50:42.080 : en:Chapter 09
01:00:26.914 : en:Chapter 10
01:09:33.919 : en:Chapter 11
01:14:16.118 : en:Chapter 12

Скриншоты


[Профиль] [ЛС]
Кто просматривает тему:

Показать сообщения:    

Текущее время: Сегодня 04:59

Часовой пояс: GMT



Вы не можете начинать темы
Вы не можете отвечать на сообщения
Вы не можете редактировать свои сообщения
Вы не можете удалять свои сообщения
Вы не можете голосовать в опросах
Вы не можете прикреплять файлы к сообщениям
Вы не можете скачивать файлы