Хлоя и Тео / Chloe and Theo (Эзна Сэндс / Ezna Sands) [2015, Канада, США, драма, комедия, WEB-DLRip] DVO

 
Автор Сообщение

TorrentFilm ®

Пол:

Стаж: 2 года

Сообщений: 7741



Награды: Нет

Торрент-статистика

Создавать темы 17-Окт-2015 10:14

[Цитировать]

Хлоя и Тео / Chloe and Theo
Страна: Канада, США
Жанр: драма, комедия
Год выпуска: 2015
Продолжительность: 01:21:44
Перевод: Любительский (двухголосый закадровый)
Cубтитры: нет
Режиссер: Эзна Сэндс / Ezna Sands
В ролях: Дакота Джонсон, Мира Сорвино, Лори Тан Чинн, Адриан Мартинес, Кристофер Бакус, Элизабет Масуччи, Ларри Кинг, Эшли Спрингер, Николь Зиоли, Джесика Андерсон и др.
Описание: Каждый день человечество своей деятельностью оказывает пагубное влияние на нашу планету. Но есть еще люди, которым не безразлична ее судьба. Одним из таких защитников природы оказывается простой эскимос Тео. Он своими глазами видит влияние глобального потепления и хочет изменить ситуацию. Для этого он решает отправиться в Нью-Йорк и встретится с лидерами государства. Тео хочет объяснить им всю опасность ситуации. В своем желании он не одинок. В мегаполисе Тео встречает молодую бездомную девушку Хлою, которая поддерживает его идею по спасению планеты. Но как далеко они смогут продвинуться к этой цели?
Сэмпл: http://multi-up.com/1071204
Качество видео: WEB-DLRip
Формат видео: AVI
Видео: 720x304 (2.37:1), 23.976 fps, XviD build 73 ~2345 kbps avg, 0.45 bit/pixel
Аудио: 48 kHz, AC3 Dolby Digital, 2/0 (L,R) ch, ~192 kbps

MediaInfo

Format : AVI
Format/Info : Audio Video Interleave
File size : 1.45 GiB
Duration : 1h 21mn
Overall bit rate : 2 547 Kbps
Writing application : VirtualDubMod 1.5.10.3 | www.virtualdub-fr.org || (build 2550/release)
Writing library : VirtualDubMod build 2550/release
Video
ID : 0
Format : MPEG-4 Visual
Format profile : Advanced Simple@L5
Format settings, BVOP : 1
Format settings, QPel : No
Format settings, GMC : No warppoints
Format settings, Matrix : Custom
Codec ID : XVID
Codec ID/Hint : XviD
Duration : 1h 21mn
Bit rate : 2 345 Kbps
Width : 720 pixels
Height : 304 pixels
Display aspect ratio : 2.35:1
Frame rate : 23.976 fps
Color space : YUV
Chroma subsampling : 4:2:0
Bit depth : 8 bits
Scan type : Progressive
Compression mode : Lossy
Bits/(Pixel*Frame) : 0.447
Stream size : 1.34 GiB (92%)
Writing library : XviD 73
Audio
ID : 1
Format : AC-3
Format/Info : Audio Coding 3
Mode extension : CM (complete main)
Format settings, Endianness : Big
Codec ID : 2000
Duration : 1h 21mn
Bit rate mode : Constant
Bit rate : 192 Kbps
Channel(s) : 2 channels
Channel positions : Front: L R
Sampling rate : 48.0 KHz
Bit depth : 16 bits
Compression mode : Lossy
Stream size : 112 MiB (8%)
Alignment : Split accross interleaves
Interleave, duration : 42 ms (1.00 video frame)
Interleave, preload duration : 500 ms

Скриншоты

[Профиль] [ЛС]
Кто просматривает тему:

Показать сообщения:    

Текущее время: Сегодня 16:57

Часовой пояс: GMT



Вы не можете начинать темы
Вы не можете отвечать на сообщения
Вы не можете редактировать свои сообщения
Вы не можете удалять свои сообщения
Вы не можете голосовать в опросах
Вы не можете прикреплять файлы к сообщениям
Вы не можете скачивать файлы