Хлоя и Тео / Chloe and Theo (Эзна Сэндс / Ezna Sands) [2015, США, Канада, мелодрама, WEB-DLRip] DVO (Lord32xStudio)

 
Автор Сообщение

TorrentFilm ®

Пол:

Стаж: 2 года

Сообщений: 7741



Награды: Нет

Торрент-статистика

Создавать темы 23-Июл-2015 00:09

[Цитировать]

Хлоя и Тео / Chloe and Theo
Страна: США, Канада
Жанр: мелодрама
Год выпуска: 2015
Продолжительность: 01:21:43
Перевод: Любительский (двухголосый закадровый) Lord32xStudio
Cубтитры: нет
Режиссер: Эзна Сэндс / Ezna Sands
В ролях: Дакота Джонсон, Мира Сорвино, Лори Тан Чинн, Адриан Мартинес, Кристофер Бакус
Описание: Проживший всю свою жизнь в арктической Канаде инуит Тео решает отправиться в Нью-Йорк, чтобы рассказать всему миру об опасности глобального потепления. Город встречает его не очень дружелюбно, но зато он быстро находит новых, колоритных друзей и начинает изучать малознакомый ему мир «этих странных, белых людей»…
Доп. информация: Фильм представляет собой неожиданную смесь комедии и мелодрамы. Финал слегка обескураживает, но, видимо, авторы боялись окончательного скатывания в карамельную сказку и решили добавить остроты.
Моральный посыл фильма построен на вечных и старых как мир, но не устаревающих ценностях.
Перевод: М. Васильев
Озвучка: Lord32xStudio
Сэмпл
IMDB
Качество видео: WEB-DLRip
Формат видео: AVI
Видео: 2171 Kbps, 720x304 (2.35:1) 23 976 fps MPEG 4
Аудио: 384 Kbps, 48.0 KHz, 16 bits, 6 ch AC 3

MediaInfo

General
Complete name : C:\Users\Владелец\Downloads\ХлояИТео.avi
Format : AVI
Format/Info : Audio Video Interleave
File size : 1.46 GiB
Duration : 1h 21mn
Overall bit rate : 2 565 Kbps
Writing application : VirtualDubMod 1.5.10.3 | www.virtualdub-fr.org || (build 2550/release)
Writing library : VirtualDubMod build 2550/release
Video
ID : 0
Format : MPEG-4 Visual
Format profile : Advanced Simple@L5
Format settings, BVOP : 1
Format settings, QPel : No
Format settings, GMC : No warppoints
Format settings, Matrix : Default (H.263)
Codec ID : XVID
Codec ID/Hint : XviD
Duration : 1h 21mn
Bit rate : 2 171 Kbps
Width : 720 pixels
Height : 304 pixels
Display aspect ratio : 2.35:1
Frame rate : 23.976 fps
Color space : YUV
Chroma subsampling : 4:2:0
Bit depth : 8 bits
Scan type : Progressive
Compression mode : Lossy
Bits/(Pixel*Frame) : 0.414
Stream size : 1.24 GiB (85%)
Writing library : XviD 1.2.1 (UTC 2008-12-04)
Audio
ID : 1
Format : AC-3
Format/Info : Audio Coding 3
Mode extension : CM (complete main)
Format settings, Endianness : Big
Codec ID : 2000
Duration : 1h 21mn
Bit rate mode : Constant
Bit rate : 384 Kbps
Channel(s) : 6 channels
Channel positions : Front: L C R, Side: L R, LFE
Sampling rate : 48.0 KHz
Bit depth : 16 bits
Compression mode : Lossy
Stream size : 224 MiB (15%)
Alignment : Split accross interleaves
Interleave, duration : 42 ms (1.00 video frame)
Interleave, preload duration : 500 ms

Скриншот c названием фильма

Скриншоты

[Профиль] [ЛС]
Кто просматривает тему:

Показать сообщения:    

Текущее время: Сегодня 17:40

Часовой пояс: GMT



Вы не можете начинать темы
Вы не можете отвечать на сообщения
Вы не можете редактировать свои сообщения
Вы не можете удалять свои сообщения
Вы не можете голосовать в опросах
Вы не можете прикреплять файлы к сообщениям
Вы не можете скачивать файлы