Хлеб наш насущный / Our Daily Bread / Unser täglich Brot (Николаус Гейрхальтер \\ Nikolaus Geyrhalter) [2005, Документальный, BDRip 720p]

 
Автор Сообщение

TorrentFilm ®

Пол:

Стаж: 2 года

Сообщений: 7741



Награды: Нет

Торрент-статистика

Создавать темы 15-Июл-2015 00:08

[Цитировать]

Хлеб наш насущный / Our Daily Bread / Unser täglich Brot Год выпуска: 2005
Страна: Германия, Австрия
Жанр: Документальный
Продолжительность: 01:31:58
Перевод: Не требуется (фильм без слов)
Русские субтитры: нет
Режиссер: Николаус Гейрхальтер \ Nikolaus Geyrhalter
Описание: Потрясающие кадры документируют зрителю до сих пор не познанный им мир высокотехнологичной сельхозпромышленности. Производство продуктов питания в разных населенных пунктах Европы кажется утопией - но лишь на первый взгляд. В картине присутствуют, например, захватывающие сюжеты о машине, способной в течение пятнадцати минут отряхнуть маслину, машине для кастрации поросят и многих других приспособлениях, повышающих эффективность крупного производства на максимум.
В фильме нет ни рассказчика, ни музыки, ни статистик, ни интервью; холодный глаз кинокамеры запечатлевает исключительно близость потребителя и потребляемого, время и пространство заполняется неспешным наблюдением, фон создает лишь скрежетание металла и крики животных. Стерильные коридоры и монументальность машин, представленных в качестве своеобразных живых существ, перемещающих продукты питания на стол людей, ассоциируются с фантастикой С. Кубрика. С современным производством отождествляются машины, все живое переходит на второй и последующие планы...



Тип релиза: BDRip 720p
Контейнер: MKV
Видео: MPEG-4 AVC (H.264), 1280x720 (16:9), 5000 Kbps, 25 fps, 0.226 bit/pixel
Аудио: MP2, 192 Кбит/с, 48 kHz, 2 ch

Исходник: BDRip 1080p спасибо Cossmoss

x264 log

...last pass...
x264.exe: --pass 2 --bitrate 5000 --preset slower --level 4.1 --ref 7 --deblock -1:-1 --merange 32 --bframes 6 --psy-rd 1.05:0.20 --vbv-bufsize 14000 --vbv-maxrate 14000 --partitions p8x8,b8x8,i4x4,i8x8 --sar 1:1 --stats "F:\Temp\0018.log" --output "F:\Temp\0018.264" "F:\Temp\0018.avs"
avs [info]: 1280x720p 1:1 @ 10000000/416667 fps (cfr)
x264 [info]: using SAR=1/1
x264 [info]: using cpu capabilities: MMX2 SSE2Fast SSSE3 SSE4.2 AVX
x264 [info]: profile High, level 4.1
x264 [info]: frame I:618 Avg QP:17.20 size:184619
x264 [info]: frame P:31439 Avg QP:19.88 size: 62025
x264 [info]: frame B:105945 Avg QP:23.28 size: 14284
x264 [info]: consecutive B-frames: 1.0% 1.8% 7.5% 40.8% 17.9% 28.2% 2.8%
x264 [info]: mb I I16..4: 11.4% 55.1% 33.6%
x264 [info]: mb P I16..4: 1.4% 8.3% 1.7% P16..4: 35.7% 25.9% 19.1% 0.0% 0.0% skip: 7.8%
x264 [info]: mb B I16..4: 0.3% 1.4% 0.3% B16..8: 33.8% 8.1% 2.7% direct: 7.7% skip:45.8% L0:39.3% L1:46.4% BI:14.3%
x264 [info]: 8x8 transform intra:69.6% inter:52.3%
x264 [info]: direct mvs spatial:97.6% temporal:2.4%
x264 [info]: coded y,uvDC,uvAC intra: 84.5% 80.2% 47.4% inter: 26.1% 28.3% 4.9%
x264 [info]: i16 v,h,dc,p: 24% 24% 18% 34%
x264 [info]: i8 v,h,dc,ddl,ddr,vr,hd,vl,hu: 10% 10% 8% 8% 13% 12% 14% 11% 14%
x264 [info]: i4 v,h,dc,ddl,ddr,vr,hd,vl,hu: 12% 12% 4% 8% 13% 12% 14% 11% 15%
x264 [info]: i8c dc,h,v,p: 43% 25% 19% 14%
x264 [info]: Weighted P-Frames: Y:1.6% UV:0.4%
x264 [info]: ref P L0: 46.5% 12.9% 20.3% 5.6% 5.8% 3.8% 4.6% 0.4% 0.0%
x264 [info]: ref B L0: 79.4% 10.7% 4.8% 2.8% 1.5% 0.8%
x264 [info]: ref B L1: 94.5% 5.5%
x264 [info]: kb/s:4977.25
x264 [total]: encoded 138002 frames, 11.50 fps, 4977.26 kb/s

MediaInfo

GeneralUnique ID : 224861112287747508259154706222890992205 (0xA92AACC969BE1F40AF857FB076A1C24D)Complete name : D:\Видео\Флора и фауна\Unser taglich Brot BDRip-720p.2005.mkvFormat : MatroskaFormat version : Version 2File size : 3.46 GiBDuration : 1h 35mnOverall bit rate : 5 170 KbpsMovie name : BDRip by VicmanEncoded date : UTC 2015-06-24 12:26:07Writing application : mkvmerge v7.8.0 ('River Man') 32bit built on Apr 3 2015 12:11:22Writing library : libebml v1.3.1 + libmatroska v1.4.2
VideoID : 1Format : AVCFormat/Info : Advanced Video CodecFormat profile : High@L4.1Format settings, CABAC : YesFormat settings, ReFrames : 7 framesCodec ID : V_MPEG4/ISO/AVCDuration : 1h 35mnBit rate : 5 000 KbpsWidth : 1 280 pixelsHeight : 720 pixelsDisplay aspect ratio : 16:9Frame rate mode : ConstantFrame rate : 24.000 fpsColor space : YUVChroma subsampling : 4:2:0Bit depth : 8 bitsScan type : ProgressiveBits/(Pixel*Frame) : 0.226Stream size : 3.26 GiB (94%)Writing library : x264 core 146 r2538 121396cEncoding settings : cabac=1 / ref=7 / deblock=1:-1:-1 / analyse=0x3:0x113 / me=umh / subme=9 / psy=1 / psy_rd=1.05:0.20 / mixed_ref=1 / me_range=32 / chroma_me=1 / trellis=2 / 8x8dct=1 / cqm=0 / deadzone=21,11 / fast_pskip=1 / chroma_qp_offset=-3 / threads=6 / lookahead_threads=1 / sliced_threads=0 / nr=0 / decimate=1 / interlaced=0 / bluray_compat=0 / constrained_intra=0 / bframes=6 / b_pyramid=2 / b_adapt=2 / b_bias=0 / direct=3 / weightb=1 / open_gop=0 / weightp=2 / keyint=250 / keyint_min=23 / scenecut=40 / intra_refresh=0 / rc_lookahead=60 / rc=2pass / mbtree=1 / bitrate=5000 / ratetol=1.0 / qcomp=0.60 / qpmin=0 / qpmax=69 / qpstep=4 / cplxblur=20.0 / qblur=0.5 / vbv_maxrate=14000 / vbv_bufsize=14000 / nal_hrd=none / filler=0 / ip_ratio=1.40 / aq=1:1.00Default : YesForced : No
AudioID : 2Format : MPEG AudioFormat version : Version 1Format profile : Layer 2Codec ID : A_MPEG/L2Codec ID/Hint : MP2Duration : 1h 35mnBit rate mode : ConstantBit rate : 192 KbpsChannel(s) : 2 channelsSampling rate : 48.0 KHzCompression mode : LossyStream size : 132 MiB (4%)Default : YesForced : No

Скриншоты

[Профиль] [ЛС]
Кто просматривает тему:

Показать сообщения:    

Текущее время: Сегодня 20:38

Часовой пояс: GMT



Вы не можете начинать темы
Вы не можете отвечать на сообщения
Вы не можете редактировать свои сообщения
Вы не можете удалять свои сообщения
Вы не можете голосовать в опросах
Вы не можете прикреплять файлы к сообщениям
Вы не можете скачивать файлы