Хищник в 3Д / Predator 3D (Джон МакТирнан / John McTiernan) [1987, фантастика, боевик, приключения, BDrip, 1080p] OverUnder / Вертикальная стереопара

 
Автор Сообщение

TorrentFilm ®

Пол:

Стаж: 2 года

Сообщений: 7741



Награды: Нет

Торрент-статистика

Создавать темы 03-Янв-2016 00:06

[Цитировать]

Хищник / Predator
Год выпуска: 1987
Страна: США
Студия: 20th Century Fox, Gordon-Silver-Davis Production
Жанр: фантастика, боевик, приключения
Продолжительность: 01:46:32
Перевод: Профессиональный (дублированный)
Русские субтитры: нет
Режиссер на русском: Джон МакТирнан
Режиссер на английском: John McTiernan
В ролях: Арнольд Шварценеггер, Карл Уэверз, Элпидия Каррильо, Билл Дьюк, Джесси Вентура, Сонни Лендхэм, Ричард Чавес, Р.Г. Армстронг, Шэйн Блэк, Кевин Питер Холл, Steve Boyum, Уильям Х. Бертон, Генри Кинги, Свен-Оле Торсен
Описание: Американский вертолет был сбит партизанами в Южной Америке. Оставшийся в живых экипаж находится в плену. Центральное разведывательное управление США бросает свои лучшие силы для освобождения американских граждан.
Элитная группа спецназа во главе с Датчем была заброшена в южноамериканские джунгли.
Сэмпл: http://www.sendspace.com/file/b0perm
Качество: BDrip
Контейнер: MKV
Формат 3D: OverUnder / Вертикальная стереопара
Порядок ракурсов: левый ракурс первый
Видео кодек: x264
Аудио кодек: DTS
Видео: AVC / High@L5.0 / 23,976 fps / 1920х2160 / 20,0 Мбит/сек
Аудио: Русский / DTS / 48 KHz / 5.1 ch / 768 Kbps (Дубляж - BD 3D CEE)
Аудио 2: Русский / AC3 / 48 KHz / 5.1 ch / 640 Kbps (Озвучка Андрея Гаврилова (современная))
Аудио 3: Русский / AC3 / 48 KHz / 5.1 ch / 640 Kbps (Озвучка Дмитрия "Гоблина" Пучкова)
Аудио 4: Английский / AC3 / 48 KHz / 5.1 ch / 640 Kbps (Original - BD 3D CEE)
Релиз группы: ВНИМАНИЕ ! На встроенных ТВ-плеерах работать не будет!!!
Железные плееры на которых воспроизводятся полные стереопары:Popcorn C-200 , Dune HD Smart D1 , Dune HD DUO , Dune HD Smart H1 , Dune HD Smart B1 , Dune HD Max , Dune HD TV-303D , Dune HD Base 3D , Dune HD TV-301

MediaInfo

Общее
Уникальный идентификатор : 232963395968727163892265220821756965938 (0xAF431E36D6054603950E1296DB2C7432)
Полное имя : E:\закачки\Predator.Rip by SeRoGa00.mkv
Формат : Matroska
Версия формата : Version 2
Размер файла : 17,2 Гбайт
Продолжительность : 1 ч. 46 м.
Общий поток : 23,2 Мбит/сек
Дата кодирования : UTC 2013-12-11 21:34:32
Программа кодирования : mkvmerge v3.4.0 ('Rapunzel') сборка от May 15 2010 09:38:20
Библиотека кодирования : libebml v0.8.0 + libmatroska v0.9.0
Видео
Идентификатор : 1
Формат : AVC
Формат/Информация : Advanced Video Codec
Профиль формата : High@L5.0
Параметр CABAC формата : Да
Параметр ReFrames формата : 4 кадра
Идентификатор кодека : V_MPEG4/ISO/AVC
Продолжительность : 1 ч. 46 м.
Битрейт : 20,0 Мбит/сек
Ширина : 1920 пикселей
Высота : 2160 пикселей
Соотношение сторон : 0,889
Частота кадров : 23,976 кадра/сек
Цветовое пространство : YUV
Субдискретизация насыщенности : 4:2:0
Битовая глубина : 8 бит
Тип развёртки : Прогрессивная
Бит/(Пиксели*Кадры) : 0.201
Размер потока : 14,9 Гбайт (86%)
Заголовок : Rip by SeRoGa00
Библиотека кодирования : x264 core 138 r2356 a1d3d17
Настройки программы : cabac=1 / ref=4 / deblock=1:-3:-3 / analyse=0x3:0x113 / me=umh / subme=9 / psy=1 / psy_rd=1.00:0.15 / mixed_ref=1 / me_range=24 / chroma_me=1 / trellis=2 / 8x8dct=1 / cqm=0 / deadzone=21,11 / fast_pskip=1 / chroma_qp_offset=-3 / threads=9 / lookahead_threads=1 / sliced_threads=0 / nr=0 / decimate=1 / interlaced=0 / bluray_compat=0 / constrained_intra=0 / bframes=8 / b_pyramid=2 / b_adapt=2 / b_bias=0 / direct=3 / weightb=1 / open_gop=0 / weightp=2 / keyint=250 / keyint_min=23 / scenecut=40 / intra_refresh=0 / rc_lookahead=60 / rc=crf / mbtree=1 / crf=18.0 / qcomp=0.60 / qpmin=10 / qpmax=69 / qpstep=4 / vbv_maxrate=40000 / vbv_bufsize=40000 / crf_max=0.0 / nal_hrd=none / ip_ratio=1.40 / aq=1:1.00
Язык : English
Аудио #1
Идентификатор : 2
Формат : DTS
Формат/Информация : Digital Theater Systems
Идентификатор кодека : A_DTS
Продолжительность : 1 ч. 46 м.
Вид битрейта : Постоянный
Битрейт : 768 Кбит/сек
Каналы : 6 каналов
Расположение каналов : Front: L C R, Side: L R, LFE
Частота : 48,0 КГц
Битовая глубина : 24 бит
Метод сжатия : С потерями
Размер потока : 575 Мбайт (3%)
Заголовок : Дубляж - BD 3D CEE
Язык : Russian
Аудио #2
Идентификатор : 3
Формат : AC-3
Формат/Информация : Audio Coding 3
Расширение режима : CM (complete main)
Идентификатор кодека : A_AC3
Продолжительность : 1 ч. 46 м.
Вид битрейта : Постоянный
Битрейт : 640 Кбит/сек
Каналы : 6 каналов
Расположение каналов : Front: L C R, Side: L R, LFE
Частота : 48,0 КГц
Битовая глубина : 16 бит
Метод сжатия : С потерями
Размер потока : 488 Мбайт (3%)
Заголовок : Озвучка Андрея Гаврилова (современная)
Язык : Russian
Аудио #3
Идентификатор : 4
Формат : AC-3
Формат/Информация : Audio Coding 3
Расширение режима : CM (complete main)
Идентификатор кодека : A_AC3
Продолжительность : 1 ч. 46 м.
Вид битрейта : Постоянный
Битрейт : 640 Кбит/сек
Каналы : 6 каналов
Расположение каналов : Front: L C R, Side: L R, LFE
Частота : 48,0 КГц
Битовая глубина : 16 бит
Метод сжатия : С потерями
Размер потока : 488 Мбайт (3%)
Заголовок : Озвучка Дмитрия "Гоблина" Пучкова
Язык : Russian
Аудио #4
Идентификатор : 5
Формат : AC-3
Формат/Информация : Audio Coding 3
Расширение режима : CM (complete main)
Идентификатор кодека : A_AC3
Продолжительность : 1 ч. 46 м.
Вид битрейта : Постоянный
Битрейт : 640 Кбит/сек
Каналы : 6 каналов
Расположение каналов : Front: L C R, Side: L R, LFE
Частота : 48,0 КГц
Битовая глубина : 16 бит
Метод сжатия : С потерями
Размер потока : 488 Мбайт (3%)
Язык : English

Скриншоты


[Профиль] [ЛС]
Показать сообщения:    

Текущее время: Сегодня 14:57

Часовой пояс: GMT



Вы не можете начинать темы
Вы не можете отвечать на сообщения
Вы не можете редактировать свои сообщения
Вы не можете удалять свои сообщения
Вы не можете голосовать в опросах
Вы не можете прикреплять файлы к сообщениям
Вы не можете скачивать файлы