Хищники океанов 3D / Ocean Predators 3D (Бенжамин Ичер, Тимо Дж. Мэиер / Benjamin Eicher, Timo Joh. Mayer) [2013, документальный, HDRip] + original (Eng)

 
Автор Сообщение

reversefile ®

Пол:

Стаж: 4 года 5 месяцев

Сообщений: 842

Откуда: ReverseFile.org



Награды: Нет

Торрент-статистика

Создавать темы 11-Авг-2014 06:20

[Цитировать]

Хищники океанов 3D
Ocean Predators 3D
- Дата/Год выпуска: 2013
Страна: США
Жанр: документальный
Продолжительность: 00:57:19
Перевод: Профессиональный (дублированный)
Русские субтитры: нет
+ Оригинальная аудиодорожка: Aнглийский-Режиссер: Бенжамин Ичер, Тимо Дж. Мэиер / Benjamin Eicher, Timo Joh. Mayer-Описание: Присоединяйтесь к захватывающему путешествию в глубины океана в поисках самых опасных хищников! Вас ждет немало поразительных открытий об этих завораживающих и умелых охотниках. Долой мифы и легенды - готовы ли вы узнать настоящую правду об акулах, барракудах и муренах. Уникальные документальные кадры, снятые с помощью 3D-стереоскопа, покажут все, что вы хотели знать о настоящих Королях Океана!-Сэмпл | kinopoisk.ru | IMdB-Качество: HDRip | исх. BDRip 1080p ⇒
Формат: AVI
Видео: 720x400 (16:9), 23,976 fps, XviD build 65, ~2137 kbps avg, 0.31 bit/pixel
Аудио# 1: 48.0 kHz, AC3 Dolby Digital, 2/0 (L,R) ch, ~192.00 kbps avg (Dub)
Аудио# 2: 48.0 kHz, AC3 Dolby Digital, 2/0 (L,R) ch, ~192.00 kbps avg (Eng)

MediaInfo

ОбщееПолное имя : A:\Фильмы\Ocean.Predators.2013.HDRip.aviФормат : AVIФормат/Информация : Audio Video InterleaveРазмер файла : 1,02 ГбайтПродолжительность : 57 м.Общий поток : 2536 Кбит/секПрограмма кодирования : VirtualDubMod 1.5.10.2 (build 2540/release)Библиотека кодирования : VirtualDubMod build 2540/release
ВидеоИдентификатор : 0Формат : MPEG-4 VisualПрофиль формата : Advanced Simple@L5Параметр BVOP формата : 1Параметр QPel формата : НетПараметр GMC формата : Без точки переходаПараметр матрицы формата : ВыборочнаяИдентификатор кодека : XVIDИдентификатор кодека/Подсказка : XviDПродолжительность : 57 м.Битрейт : 2137 Кбит/секШирина : 720 пикселейВысота : 400 пикселейСоотношение сторон : 16:9Частота кадров : 23,976 кадра/секЦветовое пространство : YUVСубдискретизация насыщенности : 4:2:0Битовая глубина : 8 битТип развёртки : ПрогрессивнаяМетод сжатия : С потерямиБит/(Пиксели*Кадры) : 0.310Размер потока : 876 Мбайт (84%)Библиотека кодирования : XviD 65
Аудио #1Идентификатор : 1Формат : AC-3Формат/Информация : Audio Coding 3Расширение режима : CM (complete main)Параметр Endianness формата : BigИдентификатор кодека : 2000Продолжительность : 57 м.Вид битрейта : ПостоянныйБитрейт : 192 Кбит/секКаналы : 2 каналаРасположение каналов : Front: L RЧастота : 48,0 КГцБитовая глубина : 16 битМетод сжатия : С потерямиРазмер потока : 78,7 Мбайт (8%)Выравнивание : Разделение по промежуткамПродолжительность промежутка : 42 мс. (1,00 видеокадр)Время предзагрузки промежутка : 500 мс.
Аудио #2Идентификатор : 2Формат : AC-3Формат/Информация : Audio Coding 3Расширение режима : CM (complete main)Параметр Endianness формата : BigИдентификатор кодека : 2000Продолжительность : 57 м.Вид битрейта : ПостоянныйБитрейт : 192 Кбит/секКаналы : 2 каналаРасположение каналов : Front: L RЧастота : 48,0 КГцБитовая глубина : 16 битМетод сжатия : С потерямиРазмер потока : 78,7 Мбайт (8%)Выравнивание : Разделение по промежуткамПродолжительность промежутка : 42 мс. (1,00 видеокадр)Время предзагрузки промежутка : 500 мс.

Скриншоты


[Профиль] [ЛС]
Показать сообщения:    

Текущее время: Сегодня 16:22

Часовой пояс: GMT



Вы не можете начинать темы
Вы не можете отвечать на сообщения
Вы не можете редактировать свои сообщения
Вы не можете удалять свои сообщения
Вы не можете голосовать в опросах
Вы не можете прикреплять файлы к сообщениям
Вы не можете скачивать файлы