Хитмэн: Агент 47 / Hitman: Agent 47 (2015) DVD9 | Custom

 
Автор Сообщение

BOSS ®

Пол:

Стаж: 2 года 1 месяц

Сообщений: 3713

Откуда: ODESSA



Награды: 20 (Подробнее)

Mega Seeder 2 (Количество: 1) Top Seeder 4 (Количество: 1) Mega Releaser 1 (Количество: 1)
Торрент-статистика

Создавать темы 30-Янв-2016 13:16

[Цитировать]

Год выпуска: 2015
Производство: США, Германия, Сингапур / 20th Century Fox Film Corporation, TSG Entertainment, Infinite Frameworks Studios, Fox International Productions
Жанр: Боевик, фантастика, триллер, криминал
Режиссер: Александр Бах
Продюсеры: Адриан Аскариа, Чарльз Гордон, Скип Вудс
Актеры: Руперт Френд, Ханна Уэр, Закари Куинто, Киран Хайндс, Томас Кречман, Анджела Бейби, Дэн Баккедаль, Шарлин Бек, Михаэль Борнхюттер, Мелисса Бротон
Описание фильма:
История об элитном убийце, созданном при помощи генной инженерии, который объединяется с женщиной, чтобы помочь ей найти отца и раскрыть тайну своего происхождения.
Перевод: Дублированный
Субтитры: Английские, русские-Дата мировой премьеры: 13 августа 2015
Дата премьеры в России: 3 сентября 2015, «Двадцатый Век Фокс СНГ»
-Продолжительность: 01:36:13
Качество видео: DVD9
Видео: MPEG-2, 720x480@853x480 (NTSC 16:9), ~6500 Кбит/сек
Аудио 1: AC3 5.1, 448 Кбит/сек [Английский - оригинал]
Аудио 2: AC3 5.1, 384 Кбит/сек [Английский - описательный]
Аудио 3: AC3 5.1, 448 Кбит/сек [Русский - дублированный]
Доп. материалы: Удаленные сцены, Бескомпромиссный экшн: постановка поединков, Галерея, Галерея постеров, Кинотеатральные ролики, Смотрите на видео

DVDInfo:

Title: Hitman. Agent 47 (2015) DVD9 NTSC
Size: 6.49 Gb ( 6 804 996,00 KBytes ) - DVD-9
Enabled regions: 1, 2, 3, 4, 5, 6, 7, 8
VTS_01 :
Play Length: 00:00:01
Video: NTSC 16:9 (720x480) VBR, Auto Letterboxed
Audio:
Not specified (Dolby AC3, 2 ch)
Not specified (Dolby AC3, 2 ch)
Not specified (Dolby AC3, 2 ch)
Not specified (Dolby AC3, 2 ch)
Not specified (Dolby AC3, 2 ch)
Not specified (Dolby AC3, 2 ch)
Not specified (Dolby AC3, 2 ch)
Not specified (Dolby AC3, 2 ch)
Subtitles:
Not specified
Not specified
Not specified
Not specified
Not specified
Not specified
Not specified
Not specified
Not specified
Not specified
Not specified
Not specified
VTS_02 :
Play Length: 00:00:11
Video: NTSC 16:9 (720x480) VBR, Auto Letterboxed
Audio:
Not specified (Dolby AC3, 6 ch)
VTS_03 :
Play Length: 00:00:00+00:00:00+00:00:01
Video: NTSC 16:9 (720x480) VBR, Auto Pan&Scan
VTS_04 :
Play Length: 00:02:27+00:02:27
Video: NTSC 16:9 (720x480) VBR, Auto Letterboxed
Audio:
English (Dolby AC3, 6 ch)
VTS_05 :
Play Length: 01:36:13+00:00:00
Video: NTSC 16:9 (720x480) VBR, Auto Letterboxed
Audio:
English (Dolby AC3, 6 ch)
English (Dolby AC3, 6 ch)
Russian (Dolby AC3, 2 ch)
Subtitles:
English
Russian
VTS_06 :
Play Length: 00:01:03+00:01:39+00:00:00+00:01:03+{00:01:39}+00:00:33+00:01:03+00:02:31+00:00:00+00:01:03+00:01:39+00:00:33+00:01:03+00:02:31
Video: NTSC 16:9 (720x480) VBR, Auto Letterboxed
Audio:
English (Dolby AC3, 2 ch)
VTS_07 :
Play Length: 00:02:14+00:02:59+00:00:00+{00:02:14}+00:02:59+00:00:00+00:01:48+00:00:00+00:02:14+00:02:59+00:01:48
Video: NTSC 16:9 (720x480) VBR, Auto Letterboxed
Audio:
English (Dolby AC3, 6 ch)
VTS_08 :
Play Length: 00:00:00
Video: NTSC 16:9 (720x480) VBR, Auto Letterboxed
VTS_09 :
Play Length: 00:07:06+00:04:24+00:01:56+00:01:19+00:00:54
Video: NTSC 16:9 (720x480) VBR, Auto Letterboxed
Audio:
English (Dolby AC3, 2 ch)
Subtitles:
English
Russian
VTS_10 :
Play Length: 00:00:00
Video: NTSC 16:9 (720x480) VBR, Auto Letterboxed
Audio:
Not specified (Dolby AC3, 2 ch)
Not specified (Dolby AC3, 2 ch)
Not specified (Dolby AC3, 2 ch)
Not specified (Dolby AC3, 2 ch)
Not specified (Dolby AC3, 2 ch)
Not specified (Dolby AC3, 2 ch)
Not specified (Dolby AC3, 2 ch)
Not specified (Dolby AC3, 2 ch)
Subtitles:
Not specified
Not specified
Not specified
Not specified
Not specified
Not specified
Not specified
Not specified
Not specified
Not specified
Not specified
Not specified
* Menus Information *
VIDEO_TS Menu
Video:
NTSC 16:9 (720x480) VBR
Auto Pan&Scan
English Language Unit :
Title Menu
VTS_01 Menu
Video:
NTSC 4:3 (720x480) VBR
Auto Pan&Scan, Auto Letterboxed
English Language Unit :
Root Menu
VTS_02 Menu
Video:
NTSC 4:3 (720x480) VBR
Auto Pan&Scan, Auto Letterboxed
English Language Unit :
Root Menu
VTS_03 Menu
Video:
NTSC 4:3 (720x480) VBR
Auto Pan&Scan, Auto Letterboxed
English Language Unit :
Root Menu
VTS_04 Menu
Video:
NTSC 4:3 (720x480) VBR
Auto Pan&Scan, Auto Letterboxed
English Language Unit :
Root Menu
VTS_05 Menu
Video:
NTSC 16:9 (720x480) VBR
Auto Pan&Scan
Audio:
Not specified (Dolby AC3, 2 ch)
English Language Unit :
Root Menu
Subpicture Menu
Audio Menu
Angle menu
Chapter (PTT) Menu
VTS_06 Menu
Video:
NTSC 4:3 (720x480) VBR
Auto Pan&Scan, Auto Letterboxed
English Language Unit :
Root Menu
VTS_07 Menu
Video:
NTSC 4:3 (720x480) VBR
Auto Pan&Scan, Auto Letterboxed
English Language Unit :
Root Menu
VTS_08 Menu
Video:
NTSC 16:9 (720x480) VBR
Auto Pan&Scan
English Language Unit :
Root Menu
VTS_09 Menu
Video:
NTSC 4:3 (720x480) VBR
Auto Pan&Scan, Auto Letterboxed
English Language Unit :
Root Menu
VTS_10 Menu
Video:
NTSC 16:9 (720x480) VBR
Auto Pan&Scan
English Language Unit :
Root Menu

MediaInfo:

Общее
Полное имя : F:ВидеоHitman. Agent 47 (2015) DVD9 NTSCVIDEO_TSVTS_05_2.VOB
Формат : MPEG-PS
Размер файла : 1024 Мбайт
Продолжительность : 17 м.
Режим общего битрейта : Переменный
Общий поток : 7977 Кбит/сек
Видео
Идентификатор : 224 (0xE0)
Формат : MPEG Video
Версия формата : Version 2
Профиль формата : Main@Main
Параметр BVOP формата : Да
Параметр матрицы формата : Выборочная
Параметр GOP формата : Variable
Продолжительность : 17 м.
Вид битрейта : Переменный
Битрейт : 6538 Кбит/сек
Максимальный битрейт : 9800 Кбит/сек
Ширина : 720 пикселей
Высота : 480 пикселей
Соотношение сторон : 16:9
Частота кадров : 23,976 кадра/сек
Стандарт вещания : Component
Цветовое пространство : YUV
Субдискретизация насыщенности : 4:2:0
Битовая глубина : 8 бит
Тип развёртки : Прогрессивная
Порядок развёртки : 2:3 Pulldown
Метод сжатия : С потерями
Бит/(Пиксели*Кадры) : 0.789
Временной код первого кадра : 01:18:03;29
Оригинал временного кода : Group of pictures header
Размер потока : 839 Мбайт (82%)
Основные цвета : BT.601 NTSC
Характеристики трансфера : BT.601
Коэффициенты матрицы : BT.601
Аудио #1
Идентификатор : 189 (0xBD)-128 (0x80)
Формат : AC-3
Формат/Информация : Audio Coding 3
Расширение режима : CM (complete main)
Параметр Endianness формата : Big
Режим смешивания : DVD-Video
Продолжительность : 17 м.
Вид битрейта : Постоянный
Битрейт : 448 Кбит/сек
Каналы : 6 каналов
Расположение каналов : Front: L C R, Side: L R, LFE
Частота : 48,0 КГц
Битовая глубина : 16 бит
Метод сжатия : С потерями
Задержка видео : -392 мс.
Размер потока : 57,5 Мбайт (6%)
Аудио #2
Идентификатор : 189 (0xBD)-129 (0x81)
Формат : AC-3
Формат/Информация : Audio Coding 3
Расширение режима : CM (complete main)
Параметр Endianness формата : Big
Режим смешивания : DVD-Video
Продолжительность : 17 м.
Вид битрейта : Постоянный
Битрейт : 384 Кбит/сек
Каналы : 6 каналов
Расположение каналов : Front: L C R, Side: L R, LFE
Частота : 48,0 КГц
Битовая глубина : 16 бит
Метод сжатия : С потерями
Задержка видео : -424 мс.
Размер потока : 49,3 Мбайт (5%)
Аудио #3
Идентификатор : 189 (0xBD)-130 (0x82)
Формат : AC-3
Формат/Информация : Audio Coding 3
Расширение режима : CM (complete main)
Параметр Endianness формата : Big
Режим смешивания : DVD-Video
Продолжительность : 17 м.
Вид битрейта : Постоянный
Битрейт : 448 Кбит/сек
Каналы : 6 каналов
Расположение каналов : Front: L C R, Side: L R, LFE
Частота : 48,0 КГц
Битовая глубина : 16 бит
Метод сжатия : С потерями
Задержка видео : -392 мс.
Размер потока : 57,5 Мбайт (6%)
Текст #1
Идентификатор : 189 (0xBD)-32 (0x20)
Формат : RLE
Формат/Информация : Run-length encoding
Режим смешивания : DVD-Video
Продолжительность : 17 м.
Задержка видео : 1 с. 585 мс.
Текст #2
Идентификатор : 189 (0xBD)-33 (0x21)
Формат : RLE
Формат/Информация : Run-length encoding
Режим смешивания : DVD-Video
Продолжительность : 17 м.
Задержка видео : 9 с. 159 мс.
Текст #3
Идентификатор : 224 (0xE0)-CC3
Формат : EIA-608
Режим смешивания, доп. информация : Muxed in Video #1
Вид битрейта : Постоянный
Размер потока : 0,00 байт (0%)
Меню

Доп. информация:

Исходником послужил лицензионный DVD9 из-за рубежа. Испанскую звуковую дорожку заменил на русскую вместе с субтитрами. Французскую дорогу удалил.
Доп. материалы переведены русскими субтитрами.
Предупреждающие надписи скрыл.
Использовались программы: MKVExtractGUI2, SONY Vegas Pro, DVD ReMake Pro, PgcDemux, Adobe PhotoShop, MuxMan, Subtitle Workshop, MaestroSBT, DVDSubEdit.

Скриншоты меню:

Скриншоты:
[Профиль] [ЛС]
Показать сообщения:    

Текущее время: Сегодня 14:03

Часовой пояс: GMT



Вы не можете начинать темы
Вы не можете отвечать на сообщения
Вы не можете редактировать свои сообщения
Вы не можете удалять свои сообщения
Вы не можете голосовать в опросах
Вы не можете прикреплять файлы к сообщениям
Вы не можете скачивать файлы