Хирургия.Территория любви / Серии: 1-4 из 4 (Роман Бровко) [2016, мелодрама, SATRip-AVC]

 
Автор Сообщение

Aleksan66 ®

Стаж: 2 месяца 12 дней

Сообщений: 10



Награды: Нет

Торрент-статистика

Создавать темы 02-Окт-2016 16:13

[Цитировать]

Хирургия.Территория любви --
Год выпуска: 2016
Производство: Россия,Украина, "Star Media"
Жанр: мелодрама
Продолжительность: 00:46:00
Субтитры: украинские,вшитые
--
Режиссёр: Роман Бровко
--
В ролях: Ольга Гришина, Константин Самоучка, Дмитрий Пчела, Светлана Зельбет, Владимир Машук, Дарья Панасенко
Описание: Алина Лукашева счастлива. Заботливый муж Сергей, сын Лешка, уют и тепло в семье. А еще любимая работа. Алина и Сергей работают в хирургии и преданы своему делу всей душой. Но однажды все рушится. На пост завотделением больницы назначают именитого хирурга Егора Котова, в которого 12 лет назад Алина была страстно влюблена. Егор отвечал ей взаимностью, но так и не развелся с женой. Они расстались, и Егор не знал, что Алина была от него беременна. Теперь чувства вспыхивают с новой силой. Алина понимает, что Егор тоже ее любит. И на этот раз он готов бросить жену ради любимой...
--

--
Релиз от:
--
Качество: SATRip
Формат: MKV
Видео кодек: H.264
Аудио кодек: AC3
Видео: MPEG4 Video (H264), 720x400, 25fps,1500 Kbps,bit/pixel 0.208
Аудио: AC3 48000Hz, stereo, 192kbps,2 ch
--

MI

Общее
Уникальный идентификатор : 254563135756287045961337604048438581046 (0xBF83139B56710F83902FBEF1C56E5736)
Полное имя : K:\Хирургия.Территория любви\01 серия_Хирургия.Территория любви_rip by_Aleksan55.mkv
Формат : Matroska
Версия формата : Version 2
Размер файла : 563 Мбайт
Продолжительность : 46 м.
Общий поток : 1694 Кбит/сек
Дата кодирования : UTC 2016-10-02 02:47:36
Программа кодирования : mkvmerge v7.8.0 ('River Man') 32bit built on Apr 3 2015 12:11:22
Библиотека кодирования : libebml v1.3.1 + libmatroska v1.4.2
Видео
Идентификатор : 1
Формат : AVC
Формат/Информация : Advanced Video Codec
Профиль формата : High@L4.1
Параметр CABAC формата : Да
Параметр ReFrames формата : 12 кадров
Идентификатор кодека : V_MPEG4/ISO/AVC
Продолжительность : 46 м.
Битрейт : 1500 Кбит/сек
Ширина : 720 пикселей
Высота : 400 пикселей
Соотношение сторон : 16:9
Режим частоты кадров : Постоянный
Частота кадров : 25,000 кадров/сек
Цветовое пространство : YUV
Субдискретизация насыщенности : 4:2:0
Битовая глубина : 8 бит
Тип развёртки : Прогрессивная
Бит/(Пиксели*Кадры) : 0.208
Размер потока : 488 Мбайт (87%)
Библиотека кодирования : x264 core 148 r2638 7599210
Настройки программы : cabac=1 / ref=12 / deblock=1:0:0 / analyse=0x3:0x133 / me=umh / subme=10 / psy=1 / psy_rd=1.00:0.00 / mixed_ref=0 / me_range=32 / chroma_me=0 / trellis=2 / 8x8dct=1 / cqm=0 / deadzone=21,11 / fast_pskip=0 / chroma_qp_offset=-2 / threads=6 / lookahead_threads=1 / sliced_threads=0 / nr=0 / decimate=1 / interlaced=0 / bluray_compat=0 / constrained_intra=0 / bframes=12 / b_pyramid=2 / b_adapt=2 / b_bias=0 / direct=3 / weightb=1 / open_gop=0 / weightp=2 / keyint=250 / keyint_min=25 / scenecut=40 / intra_refresh=0 / rc_lookahead=40 / rc=2pass / mbtree=1 / bitrate=1500 / ratetol=1.0 / qcomp=0.80 / qpmin=0 / qpmax=39 / qpstep=4 / cplxblur=20.0 / qblur=0.5 / ip_ratio=1.40 / aq=1:1.20
Default : Да
Forced : Нет
Цветовой диапазон : Limited
Основные цвета : BT.601 PAL
Характеристики трансфера : BT.470 System B, BT.470 System G
Коэффициенты матрицы : BT.601
Аудио
Идентификатор : 2
Формат : AC-3
Формат/Информация : Audio Coding 3
Расширение режима : CM (complete main)
Параметр Endianness формата : Big
Идентификатор кодека : A_AC3
Продолжительность : 46 м.
Вид битрейта : Постоянный
Битрейт : 192 Кбит/сек
Каналы : 1 канал
Расположение каналов : Front: C
Частота : 48,0 КГц
Метод сжатия : С потерями
Размер потока : 63,8 Мбайт (11%)
Default : Да
Forced : Нет
--

Скриншоты

--Рекламы нет.
[Профиль] [ЛС]
Показать сообщения:    

Текущее время: Сегодня 19:59

Часовой пояс: GMT



Вы не можете начинать темы
Вы не можете отвечать на сообщения
Вы не можете редактировать свои сообщения
Вы не можете удалять свои сообщения
Вы не можете голосовать в опросах
Вы не можете прикреплять файлы к сообщениям
Вы не можете скачивать файлы