Химик / The Chemist (2015) WEB-DL 720p | P

 
Автор Сообщение

BOSS ®

Пол:

Стаж: 2 года 1 месяц

Сообщений: 3738

Откуда: ODESSA



Награды: 20 (Подробнее)

Mega Seeder 1 (Количество: 1) Mega Releaser 2 (Количество: 1) Top Releaser 4 (Количество: 1)
Торрент-статистика

Создавать темы 15-Янв-2016 07:00

[Цитировать]

Информация о фильме
Название: Химик
Оригинальное название: The Chemist
Год выхода: 2015
Жанр: боевик
Режиссер: Арт Камачо
В ролях: Саша Митчелл, Ричард Греко, Мартин Коув, Пэтрик Килпэтрик, Роберт Миано, Оливье Грюнер, Маршал Хилтон, Нина Бергман, Эшли Этвуд, Стефани Герард
О фильме: Стил — немолодой убийца, который подводит своего работодателя, когда отказывается убить только что встреченную им женщину. Убегая, Стил становится следующей жертвой дуэли между наёмниками — до тех пор, пока не узнает информацию, которая заставляет подвергнуть сомнению все то, что он знал раньше. Запутывая все еще больше, он влюбляется в свою потенциальную мишень.

Выпущено: США / Throwing Star Films, Al Bravo Films, Blue Hemisphere Pictures
Продолжительность: 01:41:59
Озвучивание: Профессиональное (многоголосое) [Официальный звук]
Файл
Формат: MKV
Качество: WEB-DL 720p
Видео: MPEG-4 AVC, 2569 kb/s, 1280x720
Аудио: AC3, 192 kb/s (2 ch)

MI

Format : Matroska
Format version : Version 4 / Version 2
File size : 1.96 GiB
Duration : 1h 41mn
Overall bit rate : 2 751 Kbps
Encoded date : UTC 2016-01-14 13:55:10
Writing application : mkvmerge v8.2.0 ('World of Adventure') 64bit
Writing library : libebml v1.3.1 + libmatroska v1.4.2
Video
ID : 1
Format : AVC
Format/Info : Advanced Video Codec
Format profile : High@L4
Format settings, CABAC : Yes
Format settings, ReFrames : 4 frames
Codec ID : V_MPEG4/ISO/AVC
Duration : 1h 41mn
Bit rate : 2 569 Kbps
Width : 1 280 pixels
Height : 720 pixels
Display aspect ratio : 16:9
Frame rate mode : Constant
Frame rate : 25.000 fps
Color space : YUV
Chroma subsampling : 4:2:0
Bit depth : 8 bits
Scan type : Progressive
Bits/(Pixel*Frame) : 0.112
Stream size : 1.78 GiB (91%)
Writing library : x264 core 142
Encoding settings : cabac=1 / ref=3 / deblock=1:0:0 / analyse=0x3:0x113 / me=hex / subme=7 / psy=1 / psy_rd=1.00:0.00 / mixed_ref=1 / me_range=16 / chroma_me=1 / trellis=1 / 8x8dct=1 / cqm=0 / deadzone=21,11 / fast_pskip=1 / chroma_qp_offset=-2 / threads=48 / lookahead_threads=5 / sliced_threads=0 / nr=0 / decimate=1 / interlaced=0 / bluray_compat=0 / constrained_intra=0 / bframes=6 / b_pyramid=2 / b_adapt=1 / b_bias=0 / direct=1 / weightb=1 / open_gop=0 / weightp=2 / keyint=200 / keyint_min=20 / scenecut=0 / intra_refresh=0 / rc_lookahead=40 / rc=2pass / mbtree=1 / bitrate=2569 / ratetol=1.0 / qcomp=0.60 / qpmin=0 / qpmax=69 / qpstep=4 / cplxblur=20.0 / qblur=0.5 / vbv_maxrate=3854 / vbv_bufsize=10279 / nal_hrd=none / filler=0 / ip_ratio=1.40 / aq=1:1.00
Language : English
Default : Yes
Forced : No
Audio
ID : 2
Format : AC-3
Format/Info : Audio Coding 3
Mode extension : CM (complete main)
Format settings, Endianness : Big
Codec ID : A_AC3
Duration : 1h 41mn
Bit rate mode : Constant
Bit rate : 192 Kbps
Channel(s) : 2 channels
Channel positions : Front: L R
Sampling rate : 48.0 KHz
Bit depth : 16 bits
Compression mode : Lossy
Stream size : 140 MiB (7%)
Default : Yes
Forced : No

Скриншоты



[Профиль] [ЛС]
Показать сообщения:    

Текущее время: Сегодня 20:24

Часовой пояс: GMT



Вы не можете начинать темы
Вы не можете отвечать на сообщения
Вы не можете редактировать свои сообщения
Вы не можете удалять свои сообщения
Вы не можете голосовать в опросах
Вы не можете прикреплять файлы к сообщениям
Вы не можете скачивать файлы