Химера / Splice (Винченцо Натали / Vincenzo Natali) [2009, Канада, Франция, США, фантастика, DVDRip] [Расширенная версия] MVO (ТВ3) + Original Eng

 
Автор Сообщение

TorrentFilm ®

Пол:

Стаж: 2 года

Сообщений: 7741



Награды: Нет

Торрент-статистика

Создавать темы 09-Сен-2015 00:09

[Цитировать]

Химера
Splice
Расширенная версия

Страна: Канада, Франция, США
Жанр: фантастика
Год выпуска: 2009
Продолжительность: 01:43:11-Перевод: Профессиональный (многоголосый закадровый) ТВ3
Cубтитры: нет
Оригинальная аудиодорожка: английский-Режиссер: Винченцо Натали / Vincenzo Natali
В ролях: Эдриан Броуди, Сара Полли, Дэльфин Шанеак, Брэндон МакГибон, Симона Майканеску, Дэвид Хьюлетт-Описание: Пара молодых амбициозных ученых решаются на опасный эксперимент, нарушающий все мыслимые и немыслимые юридические и этические законы. Они соединяют ДНК человека и животного, пытаясь создать новый организм. Существо, появившееся в результате эксперимента быстро развивается от деформированного младенца женского пола в красивую, но опасную крылатую человеческую химеру, которая поддерживает особую связь с обоими своими создателями-Доп. информация: Расширенная версия
на 4 минуты длиннее BD и DVD / NTSC
Английская дорожка под этот DVD на трекере появляется впервые

О переводе: Перевод ТВ3 на трекере появляется впервые
Качество: IPTV (ТВ3)
Запись и синхронизация: mister55555-Сэмпл: минута33сек-Качество видео: DVDRip (спасибо oleg-k)
Формат видео: AVI
Видео: XVID, 720х384, 1,85:1, 25,000 кадров/сек, 1502 Кбит/сек
Аудио 1: AC-3, 48,0 КГц, 192 Кбит/сек, 2 канала (многоголосый ТВ3)
Аудио 2: AC-3, 48,0 КГц, 192 Кбит/сек, 2 канала (английская оригинальная дорожка)

MediaInfo

Общее
Полное имя : Химера.2009.DVDRip.ТВ3.avi
Формат : AVI
Формат/Информация : Audio Video Interleave
Размер файла : 1,37 Гбайт
Продолжительность : 1 ч. 43 м.
Общий поток : 1901 Кбит/сек
Дата записи : 03.09.2015
Программа кодирования : VirtualDubModRus 1.5.10.2 (build 2542/release)
Библиотека кодирования : VirtualDubMod build 2542/release
Авторское право : mister55555
Примечание : для torrentfilm.net
Видео
Идентификатор : 0
Формат : MPEG-4 Visual
Профиль формата : Advanced Simple@L5
Параметр BVOP формата : 2
Параметр QPel формата : Нет
Параметр GMC формата : Без точки перехода
Параметр матрицы формата : Выборочная
Идентификатор кодека : XVID
Идентификатор кодека/Подсказка : XviD
Продолжительность : 1 ч. 43 м.
Битрейт : 1502 Кбит/сек
Ширина : 720 пикселей
Высота : 384 пикселя
Соотношение сторон : 1,85:1
Частота кадров : 25,000 кадров/сек
Цветовое пространство : YUV
Субдискретизация насыщенности : 4:2:0
Битовая глубина : 8 бит
Тип развёртки : Прогрессивная
Метод сжатия : С потерями
Бит/(Пиксели*Кадры) : 0.217
Размер потока : 1,08 Гбайт (79%)
Заголовок : Химера / Splice / 2009 / DVDRip
Библиотека кодирования : XviD 73
Аудио #1
Идентификатор : 1
Формат : AC-3
Формат/Информация : Audio Coding 3
Расширение режима : CM (complete main)
Параметр Endianness формата : Big
Идентификатор кодека : 2000
Продолжительность : 1 ч. 43 м.
Вид битрейта : Постоянный
Битрейт : 192 Кбит/сек
Каналы : 2 канала
Расположение каналов : Front: L R
Частота : 48,0 КГц
Метод сжатия : С потерями
Размер потока : 142 Мбайт (10%)
Выравнивание : Разделение по промежуткам
Продолжительность промежутка : 40 мс. (1,00 видеокадр)
Время предзагрузки промежутка : 500 мс.
Заголовок : многоголосый ТВ3
Аудио #2
Идентификатор : 2
Формат : AC-3
Формат/Информация : Audio Coding 3
Расширение режима : CM (complete main)
Параметр Endianness формата : Big
Идентификатор кодека : 2000
Продолжительность : 1 ч. 43 м.
Вид битрейта : Постоянный
Битрейт : 192 Кбит/сек
Каналы : 2 канала
Расположение каналов : Front: L R
Частота : 48,0 КГц
Метод сжатия : С потерями
Размер потока : 142 Мбайт (10%)
Выравнивание : Разделение по промежуткам
Продолжительность промежутка : 40 мс. (1,00 видеокадр)
Время предзагрузки промежутка : 500 мс.
Заголовок : оригинал

Скриншот c названием фильма

[Профиль] [ЛС]

Создавать темы 12-Июн-2016 08:13 (спустя 9 месяцев 3 дня)

Топик был перенесен из форума Фильмы 2011 года в форум Фильмы 2009 года
Russian Mafia
 
Показать сообщения:    

Текущее время: Сегодня 04:16

Часовой пояс: GMT



Вы не можете начинать темы
Вы не можете отвечать на сообщения
Вы не можете редактировать свои сообщения
Вы не можете удалять свои сообщения
Вы не можете голосовать в опросах
Вы не можете прикреплять файлы к сообщениям
Вы не можете скачивать файлы