Хеллбой II: Золотая армия / Hellboy II: The Golden Army (Гильермо дель Торо / Guillermo del Toro) [2008, США, Фантастика, фэнтези, боевик, приключения, BDRip] Dub

 
Автор Сообщение

reversefile ®

Пол:

Стаж: 4 года 5 месяцев

Сообщений: 842

Откуда: ReverseFile.org



Награды: Нет

Торрент-статистика

Создавать темы 13-Авг-2014 10:03

[Цитировать]

Хеллбой II: Золотая армия / Hellboy II: The Golden Army
«Золотая орда»
- Год выпуска: 2008
Выпущено: США, Германия / Universal Pictures
Жанр: фантастика, фэнтези, боевик, приключения
Продолжительность: 01:59:40
Перевод: Профессиональный (полное дублирование) BD CEE
Cубтитры: нет-Режиссер:
Гильермо дель Торо / Guillermo del Toro-В ролях:
Рон Перлман (Hellboy), Сэльма Блэр (Liz Sherman), Даг Джонс (Abe Sapien / Chamberlain / Angel of Death), Джон Александр (Johann Krauss / Bethmoora Goblin), Джеймс Додд (Johann Krauss), Сет МакФарлейн (Johann, озвучка), Люк Госс (Prince Nuada), Анна Уолтон (Princess Nuala), Джеффри Тэмбор (Tom Manning), Джон Хёрт (Professor Broom)-Описание:
После того как древнее перемирие между человечеством и тайным миром было нарушено, на Земле вот-вот разверзнется ад. Безжалостный лидер, вхожий в оба мира, бросает вызов своей крови и пробуждает на свет неодолимую армию чудовищ.
Настало время самому Хэллбою сразиться с беспощадным диктатором и его воинами. Вместе со своей пополняющей ряды командой «Бюро Паранормальных Исследований и Развития» он будет бороздить границы двух миров — нашего и скрытого, где самые невероятные существа обретают плоть. Хэллбою, порожденному обоими мирами, но не принадлежащему ни одному из них, предстоит выбирать между жизнью, которую он знает, и неизвестностью новой судьбы.-IMDB | КиноПоиск | Сэмпл |-Качество: BDRip
Формат: AVI
Видео: 704x384 (1.83:1), 23.976 fps, XviD build 73 ~1351 kbps avg, 0.21 bit/pixel
Аудио: 48 kHz, AC3 Dolby Digital, 3/2 (L,C,R,l,r) + LFE ch, ~384.00 kbps avg
-

Скриншоты

MediaInfo

General
Complete name                            : D:\Hellboy_II_Zolotaya_armiya_2008_BDRip_by_Dalemake.avi
Format                                   : AVI
Format/Info                              : Audio Video Interleave
File size                                : 1.46 GiB
Duration                                 : 1h 59mn
Overall bit rate                         : 1 745 Kbps
Writing application                      : VirtualDubMod 1.5.10.3 | www.virtualdub-fr.org || (build 2550/release)
Writing library                          : VirtualDubMod build 2550/release
Video
ID                                       : 0
Format                                   : MPEG-4 Visual
Format profile                           : Advanced Simple@L5
Format settings, BVOP                    : 1
Format settings, QPel                    : No
Format settings, GMC                     : No warppoints
Format settings, Matrix                  : Custom
Codec ID                                 : XVID
Codec ID/Hint                            : XviD
Duration                                 : 1h 59mn
Bit rate                                 : 1 352 Kbps
Width                                    : 704 pixels
Height                                   : 384 pixels
Display aspect ratio                     : 1.85:1
Frame rate                               : 23.976 fps
Color space                              : YUV
Chroma subsampling                       : 4:2:0
Bit depth                                : 8 bits
Scan type                                : Progressive
Compression mode                         : Lossy
Bits/(Pixel*Frame)                       : 0.209
Stream size                              : 1.13 GiB (77%)
Writing library                          : XviD 73
Audio
ID                                       : 1
Format                                   : AC-3
Format/Info                              : Audio Coding 3
Mode extension                           : CM (complete main)
Format settings, Endianness              : Big
Codec ID                                 : 2000
Duration                                 : 1h 59mn
Bit rate mode                            : Constant
Bit rate                                 : 384 Kbps
Channel(s)                               : 6 channels
Channel positions                        : Front: L C R, Side: L R, LFE
Sampling rate                            : 48.0 KHz
Bit depth                                : 16 bits
Compression mode                         : Lossy
Stream size                              : 329 MiB (22%)
Alignment                                : Split accross interleaves
Interleave, duration                     : 42 ms (1.00 video frame)
Interleave, preload duration             : 500 ms
-
[Профиль] [ЛС]

Создавать темы 06-Авг-2015 23:19 (спустя 11 месяцев 24 дня)

Топик был перенесен из форума Фильмы до 2014 года в форум Фильмы до 2012 года
sergej644
 

Создавать темы 12-Июн-2016 08:50 (спустя 1 год 9 месяцев)

Топик был перенесен из форума Фильмы 2011 года в форум Фильмы 2006-2008 года
Russian Mafia
 
Кто просматривает тему:

Показать сообщения:    

Текущее время: Сегодня 01:08

Часовой пояс: GMT



Вы не можете начинать темы
Вы не можете отвечать на сообщения
Вы не можете редактировать свои сообщения
Вы не можете удалять свои сообщения
Вы не можете голосовать в опросах
Вы не можете прикреплять файлы к сообщениям
Вы не можете скачивать файлы