Хвост тигра / The Tiger\'s Tail (Джон Бурмен / John Boorman) [2006, Ирландия, Великобритания, триллер, драма, комедия, детектив, BDRip 720p] DVO + Original eng + Sub eng

 
Автор Сообщение

Создавать темы 20-Июл-2014 03:07

Хвост тигра / The Tiger's Tail
Страна: Ирландия, Великобритания
Жанр: триллер, драма, комедия, криминал, детектив
Год выпуска: 2006
Продолжительность: 01:47:25
Перевод: Профессиональный (двухголосый закадровый) | Elrom
Cубтитры: английские
Оригинальная аудиодорожка: английский
Режиссер: Джон Бурмен / John Boorman
В ролях: Брендан Глисон, Ким Кэтролл, Киаран Хайндс, Шинед Кьюсак, Шон МакГинли, Кэти Бэлтон, Брин Глисон, Анджелин Болл, Рут МакКейб, Стэнли Таунсенд
Описание: Да, он сделал это — он поймал кельтского тигра за хвост. Он всего добился сам и удача, как ему показалось, повернулась к нему лицом. Но в какой-то момент у крупного бизнесмена из Дублина, вдруг, всё пошло наперекосяк… Проблемы с кредиторами, жена охладела, сын проникся коммунистическими идеями…
Но всё это ничто, по сравнению с тем что кто-то, как две капли воды, похожий на него, пытается прибрать к рукам его жизнь. И это у него постепенно получается…

Тип релиза: BDRip 720p (от EbP) | sample
Контейнер: MKV
Видео кодек: x264
Видео: AVC 1280x690 (1.85:1), 23.976 fps, ~8400 Kbps, 0.40 bit/pixel
Аудио #1: Russian AC3 2ch 48kHz 192Kbps | DVO Elrom
Аудио #2: English DTS 6ch 48kHz 1510Kbps | Original
Формат субтитров: softsub (SRT)
Главы: есть

x264

x264 [info]: frame I:999 Avg QP:14.69 size:154975
x264 [info]: frame P:31170 Avg QP:17.11 size: 68179
x264 [info]: frame B:122367 Avg QP:19.26 size: 36675
x264 [info]: consecutive B-frames: 1.2% 1.2% 6.9% 15.4% 15.3% 53.7% 4.6% 0.9% 0.6% 0.3%
encoded 154536 frames, 2.14 fps, 8400.10 kb/s

MediaInfo

General
Complete name : E:\...\The.Tigers.Tail.2006.720p.BluRay.x264.Rus.Eng-EbP.mkv
Format : Matroska
Format version : Version 2
File size : 7.58 GiB
Duration : 1h 47mn
Overall bit rate : 10.1 Mbps
Movie name : The.Tigers.Tail.2006.720p.BluRay.x264.Rus.Eng-EbP
Encoded date : UTC 2014-07-15 21:09:54
Writing application : mkvmerge v7.0.0 ('Where We Going') 64bit built on Jun 9 2014 15:16:27
Writing library : libebml v1.3.0 + libmatroska v1.4.1
Video
ID : 1
Format : AVC
Format/Info : Advanced Video Codec
Format profile : High@L4.1
Format settings, CABAC : Yes
Format settings, ReFrames : 9 frames
Codec ID : V_MPEG4/ISO/AVC
Duration : 1h 47mn
Bit rate : 8 201 Kbps
Width : 1 280 pixels
Height : 690 pixels
Display aspect ratio : 1.85:1
Frame rate mode : Constant
Frame rate : 23.976 fps
Color space : YUV
Chroma subsampling : 4:2:0
Bit depth : 8 bits
Scan type : Progressive
Bits/(Pixel*Frame) : 0.387
Stream size : 6.15 GiB (81%)
Title : The Tiger's Tail (2006)
Language : English
Default : Yes
Forced : No
Audio #1
ID : 2
Format : AC-3
Format/Info : Audio Coding 3
Mode extension : CM (complete main)
Format settings, Endianness : Big
Codec ID : A_AC3
Duration : 1h 47mn
Bit rate mode : Constant
Bit rate : 192 Kbps
Channel(s) : 2 channels
Channel positions : Front: L R
Sampling rate : 48.0 KHz
Bit depth : 16 bits
Compression mode : Lossy
Stream size : 148 MiB (2%)
Title : DVO Elrom
Language : Russian
Default : Yes
Forced : No
Audio #2
ID : 3
Format : DTS
Format/Info : Digital Theater Systems
Codec ID : A_DTS
Duration : 1h 47mn
Bit rate mode : Constant
Bit rate : 1 510 Kbps
Channel(s) : 6 channels
Channel positions : Front: L C R, Side: L R, LFE
Sampling rate : 48.0 KHz
Bit depth : 24 bits
Compression mode : Lossy
Stream size : 1.13 GiB (15%)
Title : Original
Language : English
Default : No
Forced : No
Text
ID : 4
Format : UTF-8
Codec ID : S_TEXT/UTF8
Codec ID/Info : UTF-8 Plain Text
Language : English
Default : No
Forced : No
Menu
00:00:00.000 : :Chapter 01
00:09:32.989 : :Chapter 02
00:19:55.777 : :Chapter 03
00:32:31.449 : :Chapter 04
00:41:18.851 : :Chapter 05
00:50:23.020 : :Chapter 06
01:01:58.297 : :Chapter 07
01:13:30.280 : :Chapter 08
01:22:29.861 : :Chapter 09
01:33:10.710 : :Chapter 10

Скриншоты

source vs EbP





 
Показать сообщения:    

Текущее время: Сегодня 20:04

Часовой пояс: GMT



Вы не можете начинать темы
Вы не можете отвечать на сообщения
Вы не можете редактировать свои сообщения
Вы не можете удалять свои сообщения
Вы не можете голосовать в опросах
Вы не можете прикреплять файлы к сообщениям
Вы не можете скачивать файлы