Хватай и беги / Freaks of Nature (2015) BDRip-AVC | L2

 
Автор Сообщение

BOSS ®

Пол:

Стаж: 2 года 1 месяц

Сообщений: 3718

Откуда: ODESSA



Награды: 20 (Подробнее)

Top Keeper 1 (Количество: 1) Mega Seeder 2 (Количество: 1) Top Keeper 4 (Количество: 1)
Торрент-статистика

Создавать темы 07-Фев-2016 05:48

[Цитировать]

Информация о фильме
Название: Хватай и беги
Оригинальное название: Freaks of Nature
Год выхода: 2015
Жанр: ужасы, комедия
Режиссер: Робби Пикеринг
В ролях: Николас Браун (Dag), Маккензи Дэвис (Petra), Джош Фэйдем (Ned), Дэнис Лири (Rick Wilson), Эд Вествик (Milan Pinache), Ванесса Энн Хадженс (Lorelei), Кигэн-Майкл Ки (Mr. Keller), Боб Оденкёрк (Shooter Parker), Джоан Кьюсак (Peg Parker), Крис Зилка (Chaz Jr.), Йен Робертс (Chaz Sr.), Рэйчел Харрис (Mrs. Mosely)
Слоган: «Выбраться живым или мертвым»
О фильме: Замысловатый сюжет переносит нас в небольшой городок на окраине США. Тут мы знакомимся с главными героями фильма «Хватай и беги» – старшеклассниками из средней школы. Поначалу всё выглядит как типичная молодёжная комедия, но вскоре происходят события, навсегда меняющие как течение сюжета, так и судьбы героев. Первое, что случается с подростками, – нападение зомби. Это кажется ужасным и невероятным, но факт остаётся фактом – живые мертвецы вылезли из своих могил, чтобы побаловать себя свежей «человеченкой». С горем пополам герои находят способ улизнуть от зомби, воспользовавшись замешательством монстров и тем фактом, что на зомби напали... вампиры! И если обрадовавшиеся ребята сначала принимают решение бежать куда подальше, то вскоре они меняют курс и направляются обратно в лапы кровожадных зомби и беспощадных вампиров. Причина их возвращения ещё более невероятна, чем то, что заставило их бежать – на Землю высадились пришельцы, желающие поработить нашу планету. Теперь людям придётся найти общий язык с ходячими мертвецами и клыкастыми вурдалаками, ведь если они не смогут одолеть инопланетян, то выжить не сможет никто. Чем же окончится эта захватывающая кинолента?

Выпущено: США / Columbia Pictures, Sony Pictures Entertainment (SPE)
Продолжительность: 01:32:35
Перевод: Любительский (двухголосый) Parovoz Production
Файл
Качество: BDRip-AVC (исх. Freaks.Of.Nature.2015.1080p.BluRay.AVC.DTS-HD.MA.5.1)
Формат: MKV
Видео: AVC, 2300 Kbps, 1024x432
Звук: Russian: AC3, 192 kbps (2 ch), English: AC3, 448 kbps (6 ch)
Субтитры: English

MediaInfo:

General
Unique ID : 241203952427225703849855452896644900680 (0xB576310412F3E77696D1FA9A7F9D2748)
Complete name : D:ДИСК1.ФИЛЬМЫХватай и беги Freaks of Nature (2015)Freaks of Nature (2015) BDRip-AVC.mkv
Format : Matroska
Format version : Version 4 / Version 2
File size : 1.90 GiB
Duration : 1h 32mn
Overall bit rate : 2 942 Kbps
Encoded date : UTC 2016-02-02 15:42:29
Writing application : mkvmerge v8.2.0 ('World of Adventure') 64bit
Writing library : XviD4PSP 6.0 / 54.29.105
DURATION : 01:31:30.193000000
NUMBER_OF_FRAMES : 1404
NUMBER_OF_BYTES : 50891
_STATISTICS_WRITING_APP : mkvmerge v8.2.0 ('World of Adventure') 64bit
_STATISTICS_WRITING_DATE_UTC : 2016-02-06 18:45:46
_STATISTICS_TAGS : BPS DURATION NUMBER_OF_FRAMES NUMBER_OF_BYTES
Video
ID : 1
Format : AVC
Format/Info : Advanced Video Codec
Format profile : High@L4.1
Format settings, CABAC : Yes
Format settings, ReFrames : 7 frames
Codec ID : V_MPEG4/ISO/AVC
Duration : 1h 32mn
Bit rate : 2 300 Kbps
Width : 1 024 pixels
Height : 432 pixels
Display aspect ratio : 2.40:1
Original display aspect ratio : 2.40:1
Frame rate mode : Constant
Frame rate : 23.976 fps
Color space : YUV
Chroma subsampling : 4:2:0
Bit depth : 8 bits
Scan type : Progressive
Bits/(Pixel*Frame) : 0.217
Stream size : 1.45 GiB (76%)
Writing library : x264 core 128 r2216M 198a7ea
Encoding settings : cabac=1 / ref=8 / deblock=1:0:0 / analyse=0x3:0x133 / me=umh / subme=8 / psy=1 / psy_rd=1.00:0.20 / mixed_ref=1 / me_range=16 / chroma_me=1 / trellis=2 / 8x8dct=1 / cqm=0 / deadzone=21,11 / fast_pskip=1 / chroma_qp_offset=-3 / threads=8 / lookahead_threads=1 / sliced_threads=0 / nr=0 / decimate=1 / interlaced=0 / bluray_compat=0 / constrained_intra=0 / bframes=8 / b_pyramid=1 / b_adapt=2 / b_bias=0 / direct=3 / weightb=1 / open_gop=0 / weightp=2 / keyint=230 / keyint_min=23 / scenecut=40 / intra_refresh=0 / rc_lookahead=40 / rc=2pass / mbtree=1 / bitrate=2300 / ratetol=1.0 / qcomp=0.60 / qpmin=10 / qpmax=51 / qpstep=4 / cplxblur=20.0 / qblur=0.5 / ip_ratio=1.40 / aq=1:1.00
Language : English
Default : Yes
Forced : No
DURATION : 01:32:35.467000000
NUMBER_OF_FRAMES : 133198
NUMBER_OF_BYTES : 1597163127
_STATISTICS_WRITING_APP : mkvmerge v8.2.0 ('World of Adventure') 64bit
_STATISTICS_WRITING_DATE_UTC : 2016-02-06 18:45:46
_STATISTICS_TAGS : BPS DURATION NUMBER_OF_FRAMES NUMBER_OF_BYTES
Audio #1
ID : 2
Format : AC-3
Format/Info : Audio Coding 3
Mode extension : CM (complete main)
Format settings, Endianness : Big
Codec ID : A_AC3
Duration : 1h 32mn
Bit rate mode : Constant
Bit rate : 192 Kbps
Channel(s) : 2 channels
Channel positions : Front: L R
Sampling rate : 48.0 KHz
Compression mode : Lossy
Stream size : 127 MiB (7%)
Title : Parovoz Production
Language : English
Default : No
Forced : No
DURATION : 01:32:35.552000000
NUMBER_OF_FRAMES : 173611
NUMBER_OF_BYTES : 311110912
_STATISTICS_WRITING_APP : mkvmerge v8.2.0 ('World of Adventure') 64bit
_STATISTICS_WRITING_DATE_UTC : 2016-02-06 18:45:46
_STATISTICS_TAGS : BPS DURATION NUMBER_OF_FRAMES NUMBER_OF_BYTES
Audio #2
ID : 3
Format : AC-3
Format/Info : Audio Coding 3
Mode extension : CM (complete main)
Format settings, Endianness : Big
Codec ID : A_AC3
Duration : 1h 32mn
Bit rate mode : Constant
Bit rate : 448 Kbps
Channel(s) : 6 channels
Channel positions : Front: L C R, Side: L R, LFE
Sampling rate : 48.0 KHz
Compression mode : Lossy
Delay relative to video : 27ms
Stream size : 297 MiB (15%)
Language : English
Default : Yes
Forced : No
Text
ID : 4
Format : UTF-8
Codec ID : S_TEXT/UTF8
Codec ID/Info : UTF-8 Plain Text
Language : English
Default : Yes
Forced : No

Скриншоты

[Профиль] [ЛС]
Показать сообщения:    

Текущее время: Сегодня 16:36

Часовой пояс: GMT



Вы не можете начинать темы
Вы не можете отвечать на сообщения
Вы не можете редактировать свои сообщения
Вы не можете удалять свои сообщения
Вы не можете голосовать в опросах
Вы не можете прикреплять файлы к сообщениям
Вы не можете скачивать файлы