Хатико: Самый верный друг / Hachi: A Dog\'s Tale (Лассе Халльстрём / Lasse Hallström) [2009, США, Драма, семейный, BDRip] Dub + Original (Eng) + Subs (Rus, Eng)

 
Автор Сообщение

TorrentFilm ®

Пол:

Стаж: 2 года

Сообщений: 7741



Награды: Нет

Торрент-статистика

Создавать темы 29-Янв-2016 00:08

[Цитировать]

Хатико: Самый верный друг / Hachi: A Dog's Tale
«Подлинная история веры, преданности и вечной любви»
- Год выпуска: 2009
Выпущено: США, Великобритания / Grand Army Entertainment
Жанр: драма, семейный
Продолжительность: 01:33:14
Перевод: Профессиональный (полное дублирование)
Cубтитры: Русские, Английские (полные) (внешние .srt*)
Оригинальная аудиодорожка: Английская-Режиссер:
Лассе Халльстрём / Lasse Hallström-В ролях:
Ричард Гир (Parker Wilson), Джоан Аллен (Cate Wilson), Кэри-Хироюки Тагава (Ken), Сара Ремер (Andy), Джейсон Александер (Carl), Эрик Авари (Jasjeet), Давиния МакФэдден (Mary Anne), Робби Саблетт (Michael), Кевин ДеКосте (Ronnie - 11 years), Роб Деньян (Teddy Barnes), Тора Халлстрем (Heather), Донна Сорбелло (Myra)-Описание:
В основе сюжета — реальная история, случившаяся в Японии и потрясшая весь мир. Однажды, возвращаясь с работы, профессор колледжа нашел на вокзале симпатичного щенка породы акита-ину. Профессор и Хатико стали верными друзьями. Каждый день пес провожал и встречал Профессора на вокзале. И даже потеря хозяина не остановила пса в его надежде, что друг вернется.-Релиз групп | | IMDB | КиноПоиск | Сэмпл |-Качество: BDRip [BDRemux | 1080p | HDCLUB]
Формат: AVI
Видео: 720x384 (1.88:1), 23.976 fps, XviD build 67 ~1781 kbps avg, 0.27 bit/pixel
Аудио #1: 48 kHz, AC3 Dolby Digital, 3/2 (L,C,R,l,r) + LFE ch, ~448.00 kbps avg (RUS)
Аудио #2: 48 kHz, AC3 Dolby Digital, 3/2 (L,C,R,l,r) + LFE ch, ~448.00 kbps avg (ENG) отдельно
-

Скриншоты

MediaInfo

Общее
Полное имя                               : D:\Hatiko_Samyi_vernyi_drug_2009_BDRip_by_Dalemake.avi
Формат                                   : AVI
Формат/Информация                        : Audio Video Interleave
Размер файла                             : 1,46 Гбайт
Продолжительность                        : 1 ч. 33 м.
Общий поток                              : 2239 Кбит/сек
Программа кодирования                    : VirtualDubMod 1.5.10.3 | www.virtualdub-fr.org || (build 2550/release)
Библиотека кодирования                   : VirtualDubMod build 2550/release
Видео
Идентификатор                            : 0
Формат                                   : MPEG-4 Visual
Профиль формата                          : Advanced Simple@L5
Параметр BVOP формата                    : 1
Параметр QPel формата                    : Нет
Параметр GMC формата                     : Без точки перехода
Параметр матрицы формата                 : Выборочная
Идентификатор кодека                     : XVID
Идентификатор кодека/Подсказка           : XviD
Продолжительность                        : 1 ч. 33 м.
Битрейт                                  : 1781 Кбит/сек
Ширина                                   : 720 пикселей
Высота                                   : 384 пикселя
Соотношение сторон                       : 1,85:1
Частота кадров                           : 23,976 кадра/сек
Цветовое пространство                    : YUV
Субдискретизация насыщенности            : 4:2:0
Битовая глубина                          : 8 бит
Тип развёртки                            : Прогрессивная
Метод сжатия                             : С потерями
Бит/(Пиксели*Кадры)                      : 0.269
Размер потока                            : 1,16 Гбайт (80%)
Библиотека кодирования                   : XviD 67
Аудио
Идентификатор                            : 1
Формат                                   : AC-3
Формат/Информация                        : Audio Coding 3
Расширение режима                        : CM (complete main)
Параметр Endianness формата              : Big
Идентификатор кодека                     : 2000
Продолжительность                        : 1 ч. 33 м.
Вид битрейта                             : Постоянный
Битрейт                                  : 448 Кбит/сек
Каналы                                   : 6 каналов
Расположение каналов                     : Front: L C R, Side: L R, LFE
Частота                                  : 48,0 КГц
Метод сжатия                             : С потерями
Размер потока                            : 299 Мбайт (20%)
Выравнивание                             : Разделение по промежуткам
Продолжительность промежутка             : 42  мс. (1,00 видеокадр)
Время предзагрузки промежутка            : 500  мс.
-
[Профиль] [ЛС]

Создавать темы 12-Июн-2016 07:56 (спустя 4 месяца 14 дней)

Топик был перенесен из форума Фильмы 2011 года в форум Фильмы 2009 года
Russian Mafia
 
Показать сообщения:    

Текущее время: Сегодня 00:21

Часовой пояс: GMT



Вы не можете начинать темы
Вы не можете отвечать на сообщения
Вы не можете редактировать свои сообщения
Вы не можете удалять свои сообщения
Вы не можете голосовать в опросах
Вы не можете прикреплять файлы к сообщениям
Вы не можете скачивать файлы