Харлей Дэвидсон и ковбой Мальборо / Harley Davidson and the Marlboro Man (1991) BDRemux 1080p | Р, Р2, А

 
Автор Сообщение

Russian Mafia ®

Пол:

Стаж: 1 год 8 месяцев

Сообщений: 4256



Награды: 10 (Подробнее)

Top Releaser 4 (Количество: 1) Top Releaser 2 (Количество: 1) Mega Seeder 3 (Количество: 1)
Торрент-статистика

Создавать темы 22-Сен-2016 05:17

[Цитировать]

Харлей Дэвидсон и ковбой Мальборо / Harley Davidson and the Marlboro Man
Страна: США
Производство: Metro-Goldwyn-Mayer (MGM), Laredo, Krisjair
Год выпуска: 1991
Жанр: боевик, триллер, драма, криминал
Продолжительность: 01:38:27
Режиссер: Саймон Уинсер
Автор сценария: Дон Майкл Пол
В ролях: Микки Рурк, Дон Джонсон, Челси Филд, Тиа Каррере, Дэниэл Болдуин, Джанкарло Эспозито, Ванесса Уильямс, Роберт Гинти
Описание: В беззаконном мире конца 80-х некий банк грубо пытается отнять принадлежащий бывшему рокеру бар. Бродяги Харли Дэвидсон и Ковбой Марльборо решили помочь своему старому другу и ограбить инкассаторов банка. Однако в бронемашине оказываются не деньги, а наркотики. Теперь незадачливых грабителей преследует группа наёмников-киллеров коррумпированного банкира...

Перевод: 4х Профессиональный (многоголосый) + 5х Профессиональный (двухголосый) + 3х Авторский (одноголосый)
Субтитры: русские (full + от «Гоблин»), английские (full + SDH full)-Качество: BDRemux 1080p
Формат: МКV
Видео кодек: AVC
Аудио кодек: АС3 | DTS
Видео: 1920x1080 (16:9), 23.976 fps, MPEG-4 AVC ~21.9 Мbps avg
Аудио №1: 48.0 kHz, AC3 Dolby Digital, 2/0 (L,R) ch, ~192 kbps | МVO / Варус Видео
Аудио №2: 48.0 kHz, AC3 Dolby Digital, 2/0 (L,R) ch, ~192 kbps | МVO / Лазер Видео
Аудио №3: 48.0 kHz, AC3 Dolby Digital, 2/0 (L,R) ch, ~192 kbps | МVO / НТВ
Аудио №4: 48.0 kHz, AC3 Dolby Digital, 2/0 (L,R) ch, ~384 kbps | DVO / НТВ+ (Н.Прозоровский и О.Голованова)
Аудио №5: 48.0 kHz, AC3 Dolby Digital, 2/0 (L,R) ch, ~192 kbps | DVO / НТВ+ (И.Тарадайкин и Н.Казначеева)
Аудио №6: 48.0 kHz, AC3 Dolby Digital, 2/0 (L,R) ch, ~192 kbps | DVO / Фортуна Фильм
Аудио №7: 48.0 kHz, AC3 Dolby Digital, 2/0 (L,R) ch, ~192 kbps | DVO / ОРТ
Аудио №8: 48.0 kHz, AC3 Dolby Digital, 2/0 (L,R) ch, ~192 kbps | DVO / RUS
Аудио №9: 48.0 kHz, AC3 Dolby Digital, 2/0 (L,R) ch, ~192 kbps | МVO / украинский / Так треба продакшн
Аудио №10: 48.0 kHz, AC3 Dolby Digital, 2/0 (L,R) ch, ~192 kbps | DVO / украинский / 2+2
Аудио №11: 48.0 kHz, AC3 Dolby Digital, 2/0 (L,R) ch, ~192 kbps | АVO / Юрий Живов
Аудио №12: 48.0 kHz, Digital Theater Systems Master Audio, 2/0 (L,R) ch, ~2107 kbps / 24-bits | MVO (Карусель/Союз)
Аудио №13: 48.0 kHz, Digital Theater Systems Master Audio, 2/0 (L,R) ch, ~2095 kbps / 24-bits | Дмитрий «Гоблин» Пучков
Аудио №14: 48.0 kHz, Digital Theater Systems Master Audio, 2/0 (L,R) ch, ~2099 kbps / 24-bits | АVO / Алексей Михалёв
Аудио №15: 48.0 kHz, Digital Theater Systems Master Audio, 2/0 (L,R) ch, ~2085 kbps / 24-bits | ENG
Формат субтитров: UTF-8 Plain Text
Бюджет: $23 000 000
Дата премьеры (мир): 23 августа 1991

Благодарность в создании релиза: shuriken331, cinemasonar, Liu Jian, s___, Гуртом
Дополнительная информация: исходник и сборка Spiellberg (hdclub)

BDRemux Info

Уникальный идентификатор : 189410698375127211920673978983325624224 (0x8E7F2C6FA8F27DA88379B4A9C373E7A0)
Полное имя : Harley Davidson and the Marlboro Man_1991г_Donnie Wayne_[Don]_Johnson & Philip Andre Rourke, Jr..mkv
Формат : Matroska
Версия формата : Version 4 / Version 2
Размер файла : 22,4 Гбайт
Продолжительность : 1 ч. 38 м.
Режим общего битрейта : Переменный
Общий поток : 32,6 Мбит/сек
Название фильма : Harley Davidson and the Marlboro Man_1991г_Donnie Wayne_[Don]_Johnson & Philip Andre Rourke, Jr.
Дата кодирования : UTC 2015-08-27 15:53:44
Программа кодирования : mkvmerge v6.9.1 ('Blue Panther') 64bit built on Apr 18 2014 18:23:38
Библиотека кодирования : libebml v1.3.0 + libmatroska v1.4.1
Видео
Идентификатор : 1
Формат : AVC
Формат/Информация : Advanced Video Codec
Профиль формата : High@L4.1
Параметр CABAC формата : Да
Параметр ReFrames формата : 4 кадра
Идентификатор кодека : V_MPEG4/ISO/AVC
Продолжительность : 1 ч. 38 м.
Вид битрейта : Переменный
Максимальный битрейт : 25,0 Мбит/сек
Ширина : 1920 пикселей
Высота : 1080 пикселей
Соотношение сторон : 16:9
Режим частоты кадров : Постоянный
Частота кадров : 23,976 кадра/сек
Цветовое пространство : YUV
Субдискретизация насыщенности : 4:2:0
Битовая глубина : 8 бит
Тип развёртки : Прогрессивная
Заголовок : Harley Davidson and the Marlboro Man_1991г_Donnie Wayne_[Don]_Johnson & Philip Andre Rourke, Jr.
Язык : English
Default : Да
Forced : Нет
Аудио #1
Идентификатор : 2
Формат : AC-3
Формат/Информация : Audio Coding 3
Расширение режима : CM (complete main)
Параметр Endianness формата : Big
Идентификатор кодека : A_AC3
Продолжительность : 1 ч. 38 м.
Вид битрейта : Постоянный
Битрейт : 192 Кбит/сек
Каналы : 2 канала
Расположение каналов : Front: L R
Частота : 48,0 КГц
Битовая глубина : 16 бит
Метод сжатия : С потерями
Размер потока : 135 Мбайт (1%)
Заголовок : |MVO, Варус Видео|
Язык : Russian
Default : Да
Forced : Нет
Аудио #2
Идентификатор : 3
Формат : AC-3
Формат/Информация : Audio Coding 3
Расширение режима : CM (complete main)
Параметр Endianness формата : Big
Идентификатор кодека : A_AC3
Продолжительность : 1 ч. 38 м.
Вид битрейта : Постоянный
Битрейт : 192 Кбит/сек
Каналы : 2 канала
Расположение каналов : Front: L R
Частота : 48,0 КГц
Битовая глубина : 16 бит
Метод сжатия : С потерями
Размер потока : 135 Мбайт (1%)
Заголовок : |MVO, Лазер Видео|
Язык : Russian
Default : Нет
Forced : Нет
Аудио #3
Идентификатор : 4
Формат : AC-3
Формат/Информация : Audio Coding 3
Расширение режима : CM (complete main)
Параметр Endianness формата : Big
Идентификатор кодека : A_AC3
Продолжительность : 1 ч. 38 м.
Вид битрейта : Постоянный
Битрейт : 192 Кбит/сек
Каналы : 2 канала
Расположение каналов : Front: L R
Частота : 48,0 КГц
Битовая глубина : 16 бит
Метод сжатия : С потерями
Размер потока : 135 Мбайт (1%)
Заголовок : |MVO, НТВ|_(А. Новиков, А. Груздев, А. Борзунов и Е. Борзунова)_
Язык : Russian
Default : Нет
Forced : Нет
Аудио #4
Идентификатор : 5
Формат : AC-3
Формат/Информация : Audio Coding 3
Расширение режима : CM (complete main)
Параметр Endianness формата : Big
Идентификатор кодека : A_AC3
Продолжительность : 1 ч. 38 м.
Вид битрейта : Постоянный
Битрейт : 384 Кбит/сек
Каналы : 2 канала
Расположение каналов : Front: L R
Частота : 48,0 КГц
Битовая глубина : 16 бит
Метод сжатия : С потерями
Размер потока : 270 Мбайт (1%)
Заголовок : |DVO, НТВ+|_(Н. Прозоровский и О. Голованова)_
Язык : Russian
Default : Нет
Forced : Нет
Аудио #5
Идентификатор : 6
Формат : AC-3
Формат/Информация : Audio Coding 3
Расширение режима : CM (complete main)
Параметр Endianness формата : Big
Идентификатор кодека : A_AC3
Продолжительность : 1 ч. 38 м.
Вид битрейта : Постоянный
Битрейт : 192 Кбит/сек
Каналы : 2 канала
Расположение каналов : Front: L R
Частота : 48,0 КГц
Битовая глубина : 16 бит
Метод сжатия : С потерями
Размер потока : 135 Мбайт (1%)
Заголовок : |DVO, НТВ+|_(И. Тарадайкин и Н. Казначеева)_
Язык : Russian
Default : Нет
Forced : Нет
Аудио #6
Идентификатор : 7
Формат : AC-3
Формат/Информация : Audio Coding 3
Расширение режима : CM (complete main)
Параметр Endianness формата : Big
Идентификатор кодека : A_AC3
Продолжительность : 1 ч. 38 м.
Вид битрейта : Постоянный
Битрейт : 192 Кбит/сек
Каналы : 2 канала
Расположение каналов : Front: L R
Частота : 48,0 КГц
Битовая глубина : 16 бит
Метод сжатия : С потерями
Размер потока : 135 Мбайт (1%)
Заголовок : |DVO, Фортуна Фильм|
Язык : Russian
Default : Нет
Forced : Нет
Аудио #7
Идентификатор : 8
Формат : AC-3
Формат/Информация : Audio Coding 3
Расширение режима : CM (complete main)
Параметр Endianness формата : Big
Идентификатор кодека : A_AC3
Продолжительность : 1 ч. 38 м.
Вид битрейта : Постоянный
Битрейт : 192 Кбит/сек
Каналы : 2 канала
Расположение каналов : Front: L R
Частота : 48,0 КГц
Битовая глубина : 16 бит
Метод сжатия : С потерями
Размер потока : 135 Мбайт (1%)
Заголовок : |DVO, ОРТ|
Язык : Russian
Default : Нет
Forced : Нет
Аудио #8
Идентификатор : 9
Формат : AC-3
Формат/Информация : Audio Coding 3
Расширение режима : CM (complete main)
Параметр Endianness формата : Big
Идентификатор кодека : A_AC3
Продолжительность : 1 ч. 38 м.
Вид битрейта : Постоянный
Битрейт : 192 Кбит/сек
Каналы : 2 канала
Расположение каналов : Front: L R
Частота : 48,0 КГц
Битовая глубина : 16 бит
Метод сжатия : С потерями
Размер потока : 135 Мбайт (1%)
Заголовок : |DVO|
Язык : Russian
Default : Нет
Forced : Нет
Аудио #9
Идентификатор : 10
Формат : AC-3
Формат/Информация : Audio Coding 3
Расширение режима : CM (complete main)
Параметр Endianness формата : Big
Идентификатор кодека : A_AC3
Продолжительность : 1 ч. 38 м.
Вид битрейта : Постоянный
Битрейт : 192 Кбит/сек
Каналы : 2 канала
Расположение каналов : Front: L R
Частота : 48,0 КГц
Битовая глубина : 16 бит
Метод сжатия : С потерями
Размер потока : 135 Мбайт (1%)
Заголовок : |MVO, Так треба продакшн|
Язык : Ukrainian
Default : Нет
Forced : Нет
Аудио #10
Идентификатор : 11
Формат : AC-3
Формат/Информация : Audio Coding 3
Расширение режима : CM (complete main)
Параметр Endianness формата : Big
Идентификатор кодека : A_AC3
Продолжительность : 1 ч. 38 м.
Вид битрейта : Постоянный
Битрейт : 192 Кбит/сек
Каналы : 2 канала
Расположение каналов : Front: L R
Частота : 48,0 КГц
Битовая глубина : 16 бит
Метод сжатия : С потерями
Размер потока : 135 Мбайт (1%)
Заголовок : |DVO, 2+2|
Язык : Ukrainian
Default : Нет
Forced : Нет
Аудио #11
Идентификатор : 12
Формат : AC-3
Формат/Информация : Audio Coding 3
Расширение режима : CM (complete main)
Параметр Endianness формата : Big
Идентификатор кодека : A_AC3
Продолжительность : 1 ч. 38 м.
Вид битрейта : Постоянный
Битрейт : 192 Кбит/сек
Каналы : 2 канала
Расположение каналов : Front: L R
Частота : 48,0 КГц
Битовая глубина : 16 бит
Метод сжатия : С потерями
Размер потока : 135 Мбайт (1%)
Заголовок : |Живов, Юрий Викторович|
Язык : Russian
Default : Нет
Forced : Нет
Аудио #12
Идентификатор : 13
Формат : DTS
Формат/Информация : Digital Theater Systems
Профиль формата : MA / Core
Режим : 16
Параметр Endianness формата : Big
Идентификатор кодека : A_DTS
Продолжительность : 1 ч. 38 м.
Вид битрейта : Переменный
Битрейт : Неизвестно / 1509 Кбит/сек
Каналы : 2 канала
Расположение каналов : Front: L R
Частота : 48,0 КГц
Битовая глубина : 24 бит
Метод сжатия : Без потерь / Lossy
Заголовок : |MVO, Карусель/Союз|
Язык : Russian
Default : Нет
Forced : Нет
Аудио #13
Идентификатор : 14
Формат : DTS
Формат/Информация : Digital Theater Systems
Профиль формата : MA / Core
Режим : 16
Параметр Endianness формата : Big
Идентификатор кодека : A_DTS
Продолжительность : 1 ч. 38 м.
Вид битрейта : Переменный
Битрейт : Неизвестно / 1509 Кбит/сек
Каналы : 2 канала
Расположение каналов : Front: L R
Частота : 48,0 КГц
Битовая глубина : 24 бит
Метод сжатия : Без потерь / Lossy
Заголовок : |Пучков, Дмитрий Юрьевич|
Язык : Russian
Default : Нет
Forced : Нет
Аудио #14
Идентификатор : 15
Формат : DTS
Формат/Информация : Digital Theater Systems
Профиль формата : MA / Core
Режим : 16
Параметр Endianness формата : Big
Идентификатор кодека : A_DTS
Продолжительность : 1 ч. 38 м.
Вид битрейта : Переменный
Битрейт : Неизвестно / 1509 Кбит/сек
Каналы : 2 канала
Расположение каналов : Front: L R
Частота : 48,0 КГц
Битовая глубина : 24 бит
Метод сжатия : Без потерь / Lossy
Заголовок : |Михалёв, Алексей Михайлович|
Язык : Russian
Default : Нет
Forced : Нет
Аудио #15
Идентификатор : 16
Формат : DTS
Формат/Информация : Digital Theater Systems
Профиль формата : MA / Core
Режим : 16
Параметр Endianness формата : Big
Идентификатор кодека : A_DTS
Продолжительность : 1 ч. 38 м.
Вид битрейта : Переменный
Битрейт : Неизвестно / 1509 Кбит/сек
Каналы : 2 канала
Расположение каналов : Front: L R
Частота : 48,0 КГц
Битовая глубина : 24 бит
Метод сжатия : Без потерь / Lossy
Заголовок : |original|
Язык : English
Default : Нет
Forced : Нет
Текст #1
Идентификатор : 17
Формат : UTF-8
Идентификатор кодека : S_TEXT/UTF8
Идентификатор кодека/Информация : UTF-8 Plain Text
Заголовок : full
Язык : Russian
Default : Нет
Forced : Нет
Текст #2
Идентификатор : 18
Формат : UTF-8
Идентификатор кодека : S_TEXT/UTF8
Идентификатор кодека/Информация : UTF-8 Plain Text
Заголовок : Пучков, Дмитрий Юрьевич
Язык : Russian
Default : Нет
Forced : Нет
Текст #3
Идентификатор : 19
Формат : UTF-8
Идентификатор кодека : S_TEXT/UTF8
Идентификатор кодека/Информация : UTF-8 Plain Text
Заголовок : full
Язык : English
Default : Нет
Forced : Нет
Текст #4
Идентификатор : 20
Формат : UTF-8
Идентификатор кодека : S_TEXT/UTF8
Идентификатор кодека/Информация : UTF-8 Plain Text
Заголовок : SDH_full
Язык : English
Default : Нет
Forced : Нет
Меню
00:00:00.000 : :Chapter 01
00:04:22.720 : :Chapter 02
00:15:50.032 : :Chapter 03
00:27:17.049 : :Chapter 04
00:45:10.416 : :Chapter 05
00:58:38.847 : :Chapter 06
01:12:13.078 : :Chapter 07
01:34:04.055 : :Chapter 08

Скриншоты

[Профиль] [ЛС]
Показать сообщения:    

Текущее время: Сегодня 08:56

Часовой пояс: GMT



Вы не можете начинать темы
Вы не можете отвечать на сообщения
Вы не можете редактировать свои сообщения
Вы не можете удалять свои сообщения
Вы не можете голосовать в опросах
Вы не можете прикреплять файлы к сообщениям
Вы не можете скачивать файлы