Харлей Дэвидсон и Ковбой Мальборо / Harley Davidson And The Marlboro Man (1991) BDRip 1080p | P, P2, A

 
Автор Сообщение

sergej644 ®

Пол:

Стаж: 4 года 11 месяцев

Сообщений: 6046

Откуда: Soviet Union



Награды: Нет

Торрент-статистика

Создавать темы 01-Сен-2015 13:41

[Цитировать]

Информация о фильме
Название: Харлей Дэвидсон и Ковбой Мальборо
Оригинальное название: Harley Davidson And The Marlboro Man
Год выпуска: 1991
Страна: США
Жанр: Боевик
Продолжительность: 01:38:27
Перевод: Профессиональный (многоголосый закадровый) x 5, Профессиональный (двухголосый закадровый) x 6, Авторский (одноголосый закадровый) x 3
Субтитры: Русские, английские
Режиссер: Саймон Уинсер
В ролях: Микки Рурк, Дон Джонсон, Челси Филд, Дэниэл Болдуин, Джанкарло Эспозито, Ванесса Уильямс, Роберт Джинти, Тиа Каррере, Джулиус Харрис, Элой Касадос
Описание: Потрепанный жизнью беспечный рокер на своем роскошном «Харлее» приезжает в Лас-Вегас, чтобы навестить старого приятеля Ковбоя Мальборо. Встретившись, парни выясняют, что владелец бара, где они провели лучшие годы своей лихой юности, на грани разорения. Дэвидсон и Мальборо решают помочь старому другу и, недолго думая, организуют налет на инкассаторский фургон.
Cамое главное в этом фильме - не интрига, а тщательно проработанная атмосфера «крутизны».
Хромированные мотоциклы и роскошные автомобили, куртки-косухи и ковбойские шляпы, девушки в завязанных на животе рубашках и злодеи в длинных кожаных пальто... И, конечно, присказки, которые надлежит цедить сквозь зубы при каждом удобном случае.
В России картина стала одним из самых популярных фильмов эпохи «пиратского видео».
В фильме практически все персонажи названы в честь известных торговых брэндов: Харли Дэвидсон — мотоцикл, ковбой Мальборо — сигареты, Вирджиния Слим — сигареты, Джек Дэниэлс — виски, Олд Грэндэд — виски. А вот Джанкарло Эспозито играет героя по имении Джими, который назван так в честь Джими Хендрикса; соответственно, и внешне он на него очень похож.
Сцена на «самолётном кладбище» снималась на военно-воздушной базе Дэвис-Монтан (штат Аризона), являющейся крупнейшим в США местом консервации боевых самолётов.

Качество: BDRip 1080p
Формат: MKV
Видео кодек: H264
Аудио кодек: AC3
Видео: MPEG4 Video (H264), 1920x1040, 23.976fps, 14.0 Mbps
Аудио #01: Русский: Dolby AC3, 48000 Hz, 2ch, 448 kbps - Многоголосый закадровый, Карусель/Союз
Аудио #02: Русский: Dolby AC3, 48000 Hz, 2ch, 192 kbps - Многоголосый закадровый, Варус Видео
Аудио #03: Русский: Dolby AC3, 48000 Hz, 2ch, 192 kbps - Многоголосый закадровый, НТВ
Аудио #04: Русский: Dolby AC3, 48000 Hz, 2ch, 192 kbps - Многоголосый закадровый, Лазер Видео
Аудио #05: Русский: Dolby AC3, 48000 Hz, 2ch, 384 kbps - Двухголосый закадровый, НТВ+
Аудио #06: Русский: Dolby AC3, 48000 Hz, 2ch, 192 kbps - Двухголосый закадровый, Фортуна Фильм
Аудио #07: Русский: Dolby AC3, 48000 Hz, 2ch, 192 kbps - Двухголосый закадровый, НТВ+
Аудио #08: Русский: Dolby AC3, 48000 Hz, 2ch, 192 kbps - Двухголосый закадровый, ОРТ
Аудио #09: Русский: Dolby AC3, 48000 Hz, 2ch, 192 kbps - Двухголосый закадровый
Аудио #10: Русский: Dolby AC3, 48000 Hz, 2ch, 448 kbps - Одноголосый закадровый, А.Михалев
Аудио #11: Русский: Dolby AC3, 48000 Hz, 2ch, 448 kbps - Одноголосый закадровый, Д. Пучков
Аудио #12: Русский: Dolby AC3, 48000 Hz, 2ch, 192 kbps - Одноголосый закадровый, Ю.Живов
Аудио #13: Украинский: Dolby AC3, 48000 Hz stereo 192 kbps - Многоголосый закадровый, Так треба продакшн
Аудио #14: Украинский: Dolby AC3, 48000 Hz stereo 192 kbps - Двухголосый закадровый, 2+2
Аудио #15: Английский: Dolby AC3, 48000 Hz, 2ch, 448 kbps
Формат субтитров: Softsub (SRT)
Сэмпл

MediaInfo:

General
Unique ID : 218230582266562658322708339744719467084 (0xA42DAE6AC78332C6B3703DEB7553724C)
Complete name : F:Torrent 21991.Harley.Davidson.renta23.mkv
Format : Matroska
Format version : Version 4 / Version 2
File size : 12.3 GiB
Duration : 1h 38mn
Overall bit rate : 18.0 Mbps
Movie name : 1991 Харлей Дэвидсон и ковбой Мальборо / renta23
Encoded date : UTC 2015-08-30 18:53:16
Writing application : mkvmerge v8.1.0 ('Psychedelic Postcard') 32bit
Writing library : libebml v1.3.1 + libmatroska v1.4.2
DURATION : 01:38:27.040000000
NUMBER_OF_FRAMES : 184595
NUMBER_OF_BYTES : 330794240
_STATISTICS_WRITING_APP : mkvmerge v8.1.0 ('Psychedelic Postcard') 32bit
_STATISTICS_WRITING_DATE_UTC : 2015-08-30 18:53:16
_STATISTICS_TAGS : BPS DURATION NUMBER_OF_FRAMES NUMBER_OF_BYTES
Video
ID : 1
Format : AVC
Format/Info : Advanced Video Codec
Format profile : High@L4.1
Format settings, CABAC : Yes
Format settings, ReFrames : 3 frames
Codec ID : V_MPEG4/ISO/AVC
Duration : 1h 38mn
Bit rate : 14.0 Mbps
Width : 1 920 pixels
Height : 1 040 pixels
Display aspect ratio : 1.85:1
Frame rate mode : Constant
Frame rate : 23.976 fps
Color space : YUV
Chroma subsampling : 4:2:0
Bit depth : 8 bits
Scan type : Progressive
Bits/(Pixel*Frame) : 0.292
Stream size : 9.28 GiB (75%)
Title : 1991 Харлей Дэвидсон и ковбой Мальборо
Writing library : x264 core 146 r2538 121396c
Encoding settings : cabac=1 / ref=4 / deblock=1:-1:-1 / analyse=0x3:0x113 / me=umh / subme=11 / psy=1 / psy_rd=1.15:0.25 / mixed_ref=1 / me_range=32 / chroma_me=1 / trellis=2 / 8x8dct=1 / cqm=0 / deadzone=21,11 / fast_pskip=0 / chroma_qp_offset=-4 / threads=12 / lookahead_threads=3 / sliced_threads=0 / nr=0 / decimate=0 / interlaced=0 / bluray_compat=0 / constrained_intra=0 / bframes=12 / b_pyramid=1 / b_adapt=2 / b_bias=0 / direct=3 / weightb=1 / open_gop=0 / weightp=2 / keyint=250 / keyint_min=23 / scenecut=40 / intra_refresh=0 / rc_lookahead=50 / rc=2pass / mbtree=1 / bitrate=14000 / ratetol=1.0 / qcomp=0.60 / qpmin=0 / qpmax=69 / qpstep=4 / cplxblur=20.0 / qblur=0.5 / vbv_maxrate=14000 / vbv_bufsize=14000 / nal_hrd=none / filler=0 / ip_ratio=1.40 / aq=1:1.00
Language : English
Default : Yes
Forced : No
Audio #1
ID : 2
Format : AC-3
Format/Info : Audio Coding 3
Mode extension : CM (complete main)
Format settings, Endianness : Big
Codec ID : A_AC3
Duration : 1h 38mn
Bit rate mode : Constant
Bit rate : 448 Kbps
Channel(s) : 2 channels
Channel positions : Front: L R
Sampling rate : 48.0 KHz
Bit depth : 16 bits
Compression mode : Lossy
Stream size : 315 MiB (2%)
Title : Многоголосый закадровый, Карусель/Союз
Language : Russian
Default : Yes
Forced : No
Audio #2
ID : 3
Format : AC-3
Format/Info : Audio Coding 3
Mode extension : CM (complete main)
Format settings, Endianness : Big
Codec ID : A_AC3
Duration : 1h 38mn
Bit rate mode : Constant
Bit rate : 192 Kbps
Channel(s) : 2 channels
Channel positions : Front: L R
Sampling rate : 48.0 KHz
Bit depth : 16 bits
Compression mode : Lossy
Stream size : 135 MiB (1%)
Title : Многоголосый закадровый, Варус Видео
Language : Russian
Default : No
Forced : No
Audio #3
ID : 4
Format : AC-3
Format/Info : Audio Coding 3
Mode extension : CM (complete main)
Format settings, Endianness : Big
Codec ID : A_AC3
Duration : 1h 38mn
Bit rate mode : Constant
Bit rate : 192 Kbps
Channel(s) : 2 channels
Channel positions : Front: L R
Sampling rate : 48.0 KHz
Bit depth : 16 bits
Compression mode : Lossy
Stream size : 135 MiB (1%)
Title : Многоголосый закадровый, НТВ
Language : Russian
Default : No
Forced : No
Audio #4
ID : 5
Format : AC-3
Format/Info : Audio Coding 3
Mode extension : CM (complete main)
Format settings, Endianness : Big
Codec ID : A_AC3
Duration : 1h 38mn
Bit rate mode : Constant
Bit rate : 192 Kbps
Channel(s) : 2 channels
Channel positions : Front: L R
Sampling rate : 48.0 KHz
Bit depth : 16 bits
Compression mode : Lossy
Stream size : 135 MiB (1%)
Title : Многоголосый закадровый, Лазер Видео
Language : Russian
Default : No
Forced : No
Audio #5
ID : 6
Format : AC-3
Format/Info : Audio Coding 3
Mode extension : CM (complete main)
Format settings, Endianness : Big
Codec ID : A_AC3
Duration : 1h 38mn
Bit rate mode : Constant
Bit rate : 384 Kbps
Channel(s) : 2 channels
Channel positions : Front: L R
Sampling rate : 48.0 KHz
Bit depth : 16 bits
Compression mode : Lossy
Stream size : 270 MiB (2%)
Title : Двухголосый закадровый, НТВ+
Language : Russian
Default : No
Forced : No
Audio #6
ID : 7
Format : AC-3
Format/Info : Audio Coding 3
Mode extension : CM (complete main)
Format settings, Endianness : Big
Codec ID : A_AC3
Duration : 1h 38mn
Bit rate mode : Constant
Bit rate : 192 Kbps
Channel(s) : 2 channels
Channel positions : Front: L R
Sampling rate : 48.0 KHz
Bit depth : 16 bits
Compression mode : Lossy
Stream size : 135 MiB (1%)
Title : Двухголосый закадровый, Фортуна Фильм
Language : Russian
Default : No
Forced : No
Audio #7
ID : 8
Format : AC-3
Format/Info : Audio Coding 3
Mode extension : CM (complete main)
Format settings, Endianness : Big
Codec ID : A_AC3
Duration : 1h 38mn
Bit rate mode : Constant
Bit rate : 192 Kbps
Channel(s) : 2 channels
Channel positions : Front: L R
Sampling rate : 48.0 KHz
Bit depth : 16 bits
Compression mode : Lossy
Stream size : 135 MiB (1%)
Title : Двухголосый закадровый, НТВ+
Language : Russian
Default : No
Forced : No
Audio #8
ID : 9
Format : AC-3
Format/Info : Audio Coding 3
Mode extension : CM (complete main)
Format settings, Endianness : Big
Codec ID : A_AC3
Duration : 1h 38mn
Bit rate mode : Constant
Bit rate : 192 Kbps
Channel(s) : 2 channels
Channel positions : Front: L R
Sampling rate : 48.0 KHz
Bit depth : 16 bits
Compression mode : Lossy
Stream size : 135 MiB (1%)
Title : Двухголосый закадровый, ОРТ
Language : Russian
Default : No
Forced : No
Audio #9
ID : 10
Format : AC-3
Format/Info : Audio Coding 3
Mode extension : CM (complete main)
Format settings, Endianness : Big
Codec ID : A_AC3
Duration : 1h 38mn
Bit rate mode : Constant
Bit rate : 192 Kbps
Channel(s) : 2 channels
Channel positions : Front: L R
Sampling rate : 48.0 KHz
Bit depth : 16 bits
Compression mode : Lossy
Stream size : 135 MiB (1%)
Title : Двухголосый закадровый
Language : Russian
Default : No
Forced : No
Audio #10
ID : 11
Format : AC-3
Format/Info : Audio Coding 3
Mode extension : CM (complete main)
Format settings, Endianness : Big
Codec ID : A_AC3
Duration : 1h 38mn
Bit rate mode : Constant
Bit rate : 448 Kbps
Channel(s) : 2 channels
Channel positions : Front: L R
Sampling rate : 48.0 KHz
Bit depth : 16 bits
Compression mode : Lossy
Stream size : 315 MiB (2%)
Title : Одноголосый закадровый, А.Михалев
Language : Russian
Default : No
Forced : No
Audio #11
ID : 12
Format : AC-3
Format/Info : Audio Coding 3
Mode extension : CM (complete main)
Format settings, Endianness : Big
Codec ID : A_AC3
Duration : 1h 38mn
Bit rate mode : Constant
Bit rate : 448 Kbps
Channel(s) : 2 channels
Channel positions : Front: L R
Sampling rate : 48.0 KHz
Bit depth : 16 bits
Compression mode : Lossy
Stream size : 315 MiB (2%)
Title : Одноголосый закадровый, Д. Пучков
Language : Russian
Default : No
Forced : No
Audio #12
ID : 13
Format : AC-3
Format/Info : Audio Coding 3
Mode extension : CM (complete main)
Format settings, Endianness : Big
Codec ID : A_AC3
Duration : 1h 38mn
Bit rate mode : Constant
Bit rate : 192 Kbps
Channel(s) : 2 channels
Channel positions : Front: L R
Sampling rate : 48.0 KHz
Bit depth : 16 bits
Compression mode : Lossy
Stream size : 135 MiB (1%)
Title : Одноголосый закадровый, Ю.Живов
Language : Russian
Default : No
Forced : No
Audio #13
ID : 14
Format : AC-3
Format/Info : Audio Coding 3
Mode extension : CM (complete main)
Format settings, Endianness : Big
Codec ID : A_AC3
Duration : 1h 38mn
Bit rate mode : Constant
Bit rate : 192 Kbps
Channel(s) : 2 channels
Channel positions : Front: L R
Sampling rate : 48.0 KHz
Bit depth : 16 bits
Compression mode : Lossy
Stream size : 135 MiB (1%)
Title : Многоголосый закадровый, Так треба продакшн
Language : Ukrainian
Default : No
Forced : No
Audio #14
ID : 15
Format : AC-3
Format/Info : Audio Coding 3
Mode extension : CM (complete main)
Format settings, Endianness : Big
Codec ID : A_AC3
Duration : 1h 38mn
Bit rate mode : Constant
Bit rate : 192 Kbps
Channel(s) : 2 channels
Channel positions : Front: L R
Sampling rate : 48.0 KHz
Bit depth : 16 bits
Compression mode : Lossy
Stream size : 135 MiB (1%)
Title : Двухголосый закадровый, 2+2
Language : Ukrainian
Default : No
Forced : No
Audio #15
ID : 16
Format : AC-3
Format/Info : Audio Coding 3
Mode extension : CM (complete main)
Format settings, Endianness : Big
Codec ID : A_AC3
Duration : 1h 38mn
Bit rate mode : Constant
Bit rate : 448 Kbps
Channel(s) : 2 channels
Channel positions : Front: L R
Sampling rate : 48.0 KHz
Bit depth : 16 bits
Compression mode : Lossy
Stream size : 315 MiB (2%)
Language : English
Default : No
Forced : No
Text #1
ID : 17
Format : UTF-8
Codec ID : S_TEXT/UTF8
Codec ID/Info : UTF-8 Plain Text
Title : BD
Language : Russian
Default : No
Forced : No
Text #2
ID : 18
Format : UTF-8
Codec ID : S_TEXT/UTF8
Codec ID/Info : UTF-8 Plain Text
Title : Goblin
Language : Russian
Default : No
Forced : No
Text #3
ID : 19
Format : UTF-8
Codec ID : S_TEXT/UTF8
Codec ID/Info : UTF-8 Plain Text
Title : SDH Songs
Language : English
Default : No
Forced : No
Text #4
ID : 20
Format : UTF-8
Codec ID : S_TEXT/UTF8
Codec ID/Info : UTF-8 Plain Text
Title : SDH
Language : English
Default : No
Forced : No
Menu
00:00:00.000 : en:Chapter 01
00:04:22.637 : en:Chapter 02
00:15:49.990 : en:Chapter 03
00:27:17.010 : en:Chapter 04
00:45:10.249 : en:Chapter 05
00:58:38.806 : en:Chapter 06
01:12:13.037 : en:Chapter 07
01:34:04.013 : en:Chapter 08

[Профиль] [ЛС]
Показать сообщения:    

Текущее время: Сегодня 16:51

Часовой пояс: GMT



Вы не можете начинать темы
Вы не можете отвечать на сообщения
Вы не можете редактировать свои сообщения
Вы не можете удалять свои сообщения
Вы не можете голосовать в опросах
Вы не можете прикреплять файлы к сообщениям
Вы не можете скачивать файлы