Хард Кор Лого 2 / Hard Core Logo 2 (Брюс МакДональд / Bruce McDonald) [2010, Канада, драма, музыка, DVDRip] Sub Rus + Original Eng

 
Автор Сообщение

TorrentFilm ®

Пол:

Стаж: 2 года

Сообщений: 7741



Награды: Нет

Торрент-статистика

Создавать темы 26-Ноя-2015 00:09

[Цитировать]

Хард Кор Лого 2 / Hard Core Logo 2
Страна: Канада
Жанр: драма, музыка
Год выпуска: 2010
Продолжительность: 01:33:54
Перевод: Субтитры (сам)
Cубтитры: русские
Оригинальная аудиодорожка: английский
Режиссер: Брюс МакДональд / Bruce McDonald
В ролях: Брюс Макдоналд, Джулиан Ричингс, Пол Шулл, Кэр Файлея
Описание: Продолжение Hard Core Logo. Брюс МакДоналд снова отправляется в дорогу, навстречу своим (а равно и чужим) демонам.
Сэмпл: https://yadi.sk/d/a802oNsqkegCK
Качество видео: DVDRip
Формат видео: AVI
Видео: 640x352 (1.82:1), 23.976 fps, XviD build 64~885 kbps avg, 0.16 bit/pixel
Аудио: 48 kHz, MPEG Layer 3, 2 ch, ~142.51 kbps avg
Формат субтитров: softsub (SRT)

MediaInfo

Общее
Полное имя : G:\RuTracker 2\HCL 2\Hard Core Logo 2.avi
Формат : AVI
Формат/Информация : Audio Video Interleave
Размер файла : 700 Мбайт
Продолжительность : 1 ч. 33 м.
Режим общего битрейта : Переменный
Общий поток : 1042 Кбит/сек
Видео
Идентификатор : 0
Формат : MPEG-4 Visual
Профиль формата : Advanced Simple@L5
Параметр BVOP формата : 1
Параметр QPel формата : Нет
Параметр GMC формата : Без точки перехода
Параметр матрицы формата : Default (H.263)
Идентификатор кодека : XVID
Идентификатор кодека/Подсказка : XviD
Продолжительность : 1 ч. 33 м.
Битрейт : 887 Кбит/сек
Ширина : 640 пикселей
Высота : 352 пикселя
Соотношение сторон : 16:9
Частота кадров : 23,976 кадра/сек
Цветовое пространство : YUV
Субдискретизация насыщенности : 4:2:0
Битовая глубина : 8 бит
Тип развёртки : Прогрессивная
Метод сжатия : С потерями
Бит/(Пиксели*Кадры) : 0.164
Размер потока : 596 Мбайт (85%)
Библиотека кодирования : XviD 64
Аудио
Идентификатор : 1
Формат : MPEG Audio
Версия формата : Version 1
Профиль формата : Layer 3
Режим : Joint stereo
Расширение режима : MS Stereo
Идентификатор кодека : 55
Идентификатор кодека/Подсказка : MP3
Продолжительность : 1 ч. 33 м.
Вид битрейта : Переменный
Битрейт : 143 Кбит/сек
Номинальный битрейт : 160 Кбит/сек
Каналы : 2 канала
Частота : 48,0 КГц
Метод сжатия : С потерями
Размер потока : 95,7 Мбайт (14%)
Выравнивание : Соединение по промежуткам
Продолжительность промежутка : 24 мс. (0,58 видеокадр)
Время предзагрузки промежутка : 202 мс.
Заголовок : hardcore-en
Библиотека кодирования : LAME3.99r
Настройки программы : -m j -V 4 -q 2 -lowpass 17.5 --abr 160

Скриншоты


скрытый текст

147
00:09:07,000 --> 00:09:10,025
Я ненавижу сниматься.
Я выгляжу толстым и старым.
148
00:09:10,450 --> 00:09:13,450
В любом случае, где то между Лос Анджелесом
и Флоридой,
149
00:09:13,550 --> 00:09:18,475
мы оба согласились быть режиссерами
этого короткой документалки для Ведьмовского ТиВи,
150
00:09:18,525 --> 00:09:21,175
что Лиз хотела назвать Spirits Are Real (Духи Реальны).
151
00:09:21,450 --> 00:09:23,775
Довольно глупое название.
152
00:09:23,875 --> 00:09:25,800
Хорошо, давай обойдем вокруг.
(Лиз): Окей.
153
00:09:25,875 --> 00:09:28,275
- Наушники в порядке, Лиз?
154
00:09:28,425 --> 00:09:30,725
(Лиз): Ты выглядишь хорошо.
- Я мог бы напугать ее
155
00:09:30,820 --> 00:09:33,875
- Нормально.
- Все что я помню, подходя
156
00:09:33,975 --> 00:09:35,500
к дому Кэр Файлея,
157
00:09:35,775 --> 00:09:38,900
было: "Кто может носить такое
имя как Кэр Файлея?"
158
00:09:39,900 --> 00:09:44,200
И кто заставил ее думать, что она
была выбрана духом моего старого приятеля Джо?
159
00:09:44,575 --> 00:09:45,800
Я имею в виду, как она посмела?
160
00:09:47,000 --> 00:09:50,625
Эй, мы здесь чтобы видеть...
(Лиз сдавленно): Дерьмо!
- О!О!О!
161
00:09:50,650 --> 00:09:52,850
- Я тебя знаю?
- Нет, нет, нет, нет. Я сни...
162
00:09:52,925 --> 00:09:54,900
Я снимаю фильмы.
- А, ты репортер!
163
00:09:55,225 --> 00:09:57,075
- Нет, я снимаю фильмы...
[Профиль] [ЛС]

Создавать темы 12-Июн-2016 07:53 (спустя 6 месяцев 16 дней)

Топик был перенесен из форума Фильмы 2011 года в форум Фильмы 2010 года
Russian Mafia
 
Кто просматривает тему:

Показать сообщения:    

Текущее время: Сегодня 16:25

Часовой пояс: GMT



Вы не можете начинать темы
Вы не можете отвечать на сообщения
Вы не можете редактировать свои сообщения
Вы не можете удалять свои сообщения
Вы не можете голосовать в опросах
Вы не можете прикреплять файлы к сообщениям
Вы не можете скачивать файлы