Хардкор / Hardcore Henry (2015) BDRip от ExKinoRay | А

 
Автор Сообщение

Russian Mafia ®

Пол:

Стаж: 1 год 8 месяцев

Сообщений: 4247



Награды: 10 (Подробнее)

Top Releaser 2 (Количество: 1) Mega Seeder 2 (Количество: 1) Mega Seeder 4 (Количество: 1)
Торрент-статистика

Создавать темы 20-Июл-2016 18:24

[Цитировать]

Информация о фильме
Название: Хардкор
Оригинальное название: Hardcore Henry
Год выхода: 2015
Жанр: боевик, фантастика
Режиссёр фильма: Илья Найшуллер
Актёры: Шарлто Копли, Данила Козловский, Хейли Беннетт, Андрей Дементьев, Сергей Шнуров, Кирилл Серебренников, Александр Паль, Светлана Устинова, Даша Чаруша, Равшана Куркова
О фильме: В воздушной лаборатории над Москвой проводятся военно-научные эксперименты по созданию людей-киборгов. Научный сотрудник Эстель собирает киборга Генри, который пробуждается в своей новой форме и единственное, что помнит из прошлой жизни — только их с Эстель любовь друг к другу. Не успев собрать мозаику воспоминаний, Генри теряет девушку по воле слепого злодея, альбиноса Акана, который похищает Эстель с помощью телекинеза. Герой бежит по ее следам, встречая на пути таинственного незнакомца Джимми, который спасает Генри жизнь и передает ему ценную информацию, способную пролить свет на прошлое киборга и место, где находится Эстель. Но дорога к ней будет полна опасностей…

Выпущено: Россия, США, Базелевс Продакшн, Robusto
Продолжительность: 01:36:50
Озвучка: А.Киреева по Гоблинскому переводу
Файл
Кодек: XviD
Качество: BDRip
Видео: XviD, 1707 Кбит/с, 720x384
Аудио: АС3, 6 ch, 448 Кбит/с

Инфо файл

Общее
Полное имя : D:ВидеоHardcore.Henry.2015. ВDRip Киреев by Vovan366(ExKinoRay).avi
Формат : AVI
Формат/Информация : Audio Video Interleave
Размер файла : 1,46 Гбайт
Продолжительность : 1 ч. 36 м.
Общий поток : 2164 Кбит/сек
Программа кодирования : VirtualDubMod 1.5.10.3 | www.virtualdub-fr.org || (build 2550/release)
Библиотека кодирования : VirtualDubMod build 2550/release
Видео
Идентификатор : 0
Формат : MPEG-4 Visual
Профиль формата : Advanced Simple@L5
Параметр BVOP формата : 2
Параметр QPel формата : Нет
Параметр GMC формата : Без точки перехода
Параметр матрицы формата : Выборочная
Режим смешивания : Сжатый битовый поток
Идентификатор кодека : XVID
Идентификатор кодека/Подсказка : XviD
Продолжительность : 1 ч. 36 м.
Битрейт : 1707 Кбит/сек
Ширина : 720 пикселей
Высота : 384 пикселя
Соотношение сторон : 1,85:1
Частота кадров : 23,976 кадра/сек
Цветовое пространство : YUV
Субдискретизация насыщенности : 4:2:0
Битовая глубина : 8 бит
Тип развёртки : Прогрессивная
Метод сжатия : С потерями
Бит/(Пиксели*Кадры) : 0.258
Размер потока : 1,15 Гбайт (79%)
Библиотека кодирования : XviD 73
Аудио
Идентификатор : 1
Формат : AC-3
Формат/Информация : Audio Coding 3
Расширение режима : CM (complete main)
Параметр Endianness формата : Big
Идентификатор кодека : 2000
Продолжительность : 1 ч. 36 м.
Вид битрейта : Постоянный
Битрейт : 448 Кбит/сек
Каналы : 6 каналов
Расположение каналов : Front: L C R, Side: L R, LFE
Частота : 48,0 КГц
Битовая глубина : 16 бит
Метод сжатия : С потерями
Размер потока : 310 Мбайт (21%)
Выравнивание : Разделение по промежуткам
Продолжительность промежутка : 42 мс. (1,00 видеокадр)
Время предзагрузки промежутка : 500 мс.

Скриншоты



Релиз от:
Rip by: Vovan366
[Профиль] [ЛС]
Показать сообщения:    

Текущее время: Сегодня 17:59

Часовой пояс: GMT



Вы не можете начинать темы
Вы не можете отвечать на сообщения
Вы не можете редактировать свои сообщения
Вы не можете удалять свои сообщения
Вы не можете голосовать в опросах
Вы не можете прикреплять файлы к сообщениям
Вы не можете скачивать файлы