Хардкор (2015) BDRip 720p | D | iTunes

 
Автор Сообщение

достали все ®

Пол:

Стаж: 1 год 8 месяцев

Сообщений: 6584



Награды: 12 (Подробнее)

Mega Releaser 3 (Количество: 1) Mega Seeder 3 (Количество: 1) Top Releaser 3 (Количество: 1)
Торрент-статистика

Создавать темы 13-Июл-2016 10:22

[Цитировать]

Хардкор
Страна: Россия США
Производство: Базелевс Продакшн, Robusto
Год выпуска: 2015
Жанр: боевик, фантастика
Продолжительность: 01:36:50
Режиссер: Илья Найшуллер
Автор сценария: Илья Найшуллер
Продюсеры: Тимур Бекмамбетов, Илья Найшуллер, Екатерина Кононенко
В ролях: Шарлто Копли, Данила Козловский, Хейли Беннетт, Андрей Дементьев, Сергей Шнуров, Кирилл Серебренников, Александр Паль, Светлана Устинова
Описание: Прекрасная супружеская жизнь рядом с очаровательной Эстель — это все, что помнит главный герой после того, как просыпается в неизвестной научной лаборатории, где в чувства его приводит собственная жена. Но супруга тут же оказывается похищенной, и ничего не понимающий главный герой Генри уже вынужден преследовать монстра Акана, который украл его жену.
Теперь ради достижения цели Генри готов на многое. Но позже оказывается, что не только он один является врагом для Акана. У подозрительного Джимми тоже свои планы на злодея. Теперь вместе ребятам предстоит спасти Эстель и предотвратить попытку задействовать армию киборгов в борьбе с человечеством. Им предстоит бороться с самим воплощением зла...

Перевод: Профессиональный (полное дублирование) | iTunes
Субтитры: русские, английские-Качество: BDRip 720p
Формат: МКV
Видео кодек: AVC
Аудио кодек: АС3
Видео: 1280x688 (1.85:1), 23.976 fps, MPEG-4 AVC ~4 951 kbps avg
Аудио №1: 48.0 kHz, AC3 Dolby Digital, 3/2 (L,C,R,l,r) + LFE ch, ~384 kbps | RUS
Аудио №2: 48.0 kHz, AC3 Dolby Digital, 3/2 (L,C,R,l,r) + LFE ch, ~640 kbps | ENG
Формат субтитров: UTF-8 Plain Text
Бюджет: $2 000 000
Дата премьеры (мир): 12 сентября 2015
Дата премьеры (РФ): 7 апреля 2016, «Bazelevs Distribution»
релиз от: ivandubskoj

Media Info

General
Unique ID : 219753473416013965908739205674960889164 (0xA552FABF6E41EA55A1507BAF6CCF254C)
Complete name : Hardcore.Henry.2015.BDRip.720p.mkv
Format : Matroska
Format version : Version 4 / Version 2
File size : 4.04 GiB
Duration : 1h 36mn
Overall bit rate : 5 977 Kbps
Movie name : Хардкор / Hardcore Henry (2015) BDRip (720p) от ivandubskoj
Encoded date : UTC 2016-07-13 05:54:29
Writing application : mkvmerge v7.9.0 ('Birds') 64bit
Writing library : libebml v1.3.1 + libmatroska v1.4.2
Video
ID : 1
Format : AVC
Format/Info : Advanced Video Codec
Format profile : High@L4.1
Format settings, CABAC : Yes
Format settings, ReFrames : 5 frames
Codec ID : V_MPEG4/ISO/AVC
Duration : 1h 36mn
Bit rate : 4 951 Kbps
Width : 1 280 pixels
Height : 688 pixels
Display aspect ratio : 1.85:1
Frame rate mode : Constant
Frame rate : 23.976 fps
Color space : YUV
Chroma subsampling : 4:2:0
Bit depth : 8 bits
Scan type : Progressive
Bits/(Pixel*Frame) : 0.234
Stream size : 3.27 GiB (81%)
Title : Hardcore Henry (2015)
Writing library : x264 core 148 r2692 64f4e24
Encoding settings : cabac=1 / ref=5 / deblock=1:0:0 / analyse=0x3:0x133 / me=umh / subme=7 / psy=1 / psy_rd=1.00:0.00 / mixed_ref=1 / me_range=16 / chroma_me=1 / trellis=1 / 8x8dct=1 / cqm=0 / deadzone=21,11 / fast_pskip=0 / chroma_qp_offset=-2 / threads=21 / lookahead_threads=3 / sliced_threads=0 / nr=0 / decimate=1 / interlaced=0 / bluray_compat=0 / constrained_intra=0 / bframes=3 / b_pyramid=2 / b_adapt=1 / b_bias=0 / direct=1 / weightb=1 / open_gop=0 / weightp=2 / keyint=250 / keyint_min=23 / scenecut=40 / intra_refresh=0 / rc_lookahead=40 / rc=2pass / mbtree=1 / bitrate=4951 / ratetol=1.0 / qcomp=0.60 / qpmin=0 / qpmax=69 / qpstep=4 / cplxblur=20.0 / qblur=0.5 / ip_ratio=1.40 / aq=1:1.00
Language : English
Default : Yes
Forced : No
Audio #1
ID : 2
Format : AC-3
Format/Info : Audio Coding 3
Mode extension : CM (complete main)
Format settings, Endianness : Big
Codec ID : A_AC3
Duration : 1h 36mn
Bit rate mode : Constant
Bit rate : 384 Kbps
Channel(s) : 6 channels
Channel positions : Front: L C R, Side: L R, LFE
Sampling rate : 48.0 KHz
Bit depth : 16 bits
Compression mode : Lossy
Stream size : 266 MiB (6%)
Title : DUB [iTunes Russia]
Language : Russian
Default : Yes
Forced : No
Audio #2
ID : 3
Format : AC-3
Format/Info : Audio Coding 3
Mode extension : CM (complete main)
Format settings, Endianness : Big
Codec ID : A_AC3
Duration : 1h 36mn
Bit rate mode : Constant
Bit rate : 640 Kbps
Channel(s) : 6 channels
Channel positions : Front: L C R, Side: L R, LFE
Sampling rate : 48.0 KHz
Bit depth : 16 bits
Compression mode : Lossy
Stream size : 443 MiB (11%)
Title : Original
Language : English
Default : No
Forced : No
Text #1
ID : 4
Format : UTF-8
Codec ID : S_TEXT/UTF8
Codec ID/Info : UTF-8 Plain Text
Title : Full
Language : English
Default : No
Forced : No
Text #2
ID : 5
Format : UTF-8
Codec ID : S_TEXT/UTF8
Codec ID/Info : UTF-8 Plain Text
Title : Full [SDH]
Language : English
Default : No
Forced : No
Menu
00:00:00.000 : en:00:00:00.000
00:04:04.494 : en:00:04:04.494
00:08:36.641 : en:00:08:36.641
00:14:12.935 : en:00:14:12.935
00:18:45.333 : en:00:18:45.333
00:22:38.816 : en:00:22:38.816
00:26:12.237 : en:00:26:12.237
00:30:05.345 : en:00:30:05.345
00:34:30.193 : en:00:34:30.193
00:37:44.429 : en:00:37:44.429
00:42:19.537 : en:00:42:19.537
00:47:05.406 : en:00:47:05.406
00:52:51.085 : en:00:52:51.085
00:56:00.482 : en:00:56:00.482
01:03:47.824 : en:01:03:47.824
01:11:23.988 : en:01:11:23.988
01:15:54.884 : en:01:15:54.884
01:22:04.670 : en:01:22:04.670
01:24:10.045 : en:01:24:10.045
01:29:31.116 : en:01:29:31.116

Скриншоты

[Профиль] [ЛС]
Показать сообщения:    

Текущее время: Сегодня 08:01

Часовой пояс: GMT



Вы не можете начинать темы
Вы не можете отвечать на сообщения
Вы не можете редактировать свои сообщения
Вы не можете удалять свои сообщения
Вы не можете голосовать в опросах
Вы не можете прикреплять файлы к сообщениям
Вы не можете скачивать файлы