Хардкор / Hardcore Henry (2015) WEB-DL 720p | iTunes

 
Автор Сообщение

достали все ®

Пол:

Стаж: 1 год 8 месяцев

Сообщений: 6613



Награды: 12 (Подробнее)

Mega Releaser 3 (Количество: 1) Mega Releaser 1 (Количество: 1) Top Releaser 2 (Количество: 1)
Торрент-статистика

Создавать темы 12-Июл-2016 02:58

[Цитировать]

Информация о фильме
Название: Хардкор
Оригинальное название: Hardcore Henry
Год выхода: 2015
Жанр: Боевик, фантастика
Режиссер: Илья Найшуллер
В ролях: Шарлто Копли, Данила Козловский, Хейли Беннетт, Андрей Дементьев, Сергей Шнуров, Кирилл Серебренников, Александр Паль, Светлана Устинова, Даша Чаруша, Равшана Куркова, Полина Филоненко, Евгений Баженов, Константин Хабенский, Михаил Изотов, Сергей Валяев, Сергей Мезенцев, Виталий Воскресенский, Алена Чехова, Леонид Парфёнов, Тим Рот
О фильме:
Прекрасная супружеская жизнь рядом с очаровательной Эстель — это все, что помнит главный герой после того, как просыпается в неизвестной научной лаборатории, где в чувства его приводит собственная жена. Но супруга тут же оказывается похищенной, и ничего не понимающий главный герой Генри уже вынужден преследовать монстра Акана, который украл его жену. Теперь ради достижения цели Генри готов на многое. Но позже оказывается, что не только он один является врагом для Акана. У подозрительного Джимми тоже свои планы на злодея. Теперь вместе ребятам предстоит спасти Эстель и предотвратить попытку задействовать армию киборгов в борьбе с человечеством. Им предстоит бороться с самим воплощением зла.

Страна: Россия, США
Студия: Базелевс Продакшн, Robusto
Продолжительность: 01:36:25
Перевод: Дублированный | iTunes
Файл
Кодек: MPEG-4
Качество: WEB-DL 720p
Видео: 1280x688, 4022 Kbit/s, 23.976 fps
Звук:
Аудио #01: 48 kHz, AC3, 5.1, 384 Kbps | Дублированный, iTunes |
Аудио #02: 48 kHz, AC3, 5.1, 384 kbps | Оригинал |
Субтитры: Английские
Автор релиза:

MI

General
Unique ID : 182076024268449993884206181291501493796 (0x88FA91152CDC6609923A8885A0371E24)
Complete name : F:VideoHardcore.Henry.2016.WEB-DL.720p.ExKinoRay.mkv
Format : Matroska
Format version : Version 4 / Version 2
File size : 3.24 GiB
Duration : 1h 36mn
Overall bit rate : 4 792 Kbps
Movie name : Hardcore.Henry.2016.WEB-DL.720p.ExKinoRay
Encoded date : UTC 2016-07-11 22:39:29
Writing application : mkvmerge v8.3.0 ('Over the Horizon') 64bit
Writing library : libebml v1.3.1 + libmatroska v1.4.2
Video
ID : 1
Format : AVC
Format/Info : Advanced Video Codec
Format profile : High@L3.1
Format settings, CABAC : No
Format settings, ReFrames : 2 frames
Codec ID : V_MPEG4/ISO/AVC
Duration : 1h 36mn
Bit rate : 4 022 Kbps
Width : 1 280 pixels
Height : 688 pixels
Display aspect ratio : 1.85:1
Frame rate mode : Constant
Frame rate : 23.976 (23976/1000) fps
Color space : YUV
Chroma subsampling : 4:2:0
Bit depth : 8 bits
Scan type : Progressive
Bits/(Pixel*Frame) : 0.190
Stream size : 2.72 GiB (84%)
Language : English
Default : Yes
Forced : No
Color range : Limited
Color primaries : BT.709
Transfer characteristics : BT.709
Matrix coefficients : BT.709
Audio #1
ID : 2
Format : AC-3
Format/Info : Audio Coding 3
Mode extension : CM (complete main)
Format settings, Endianness : Big
Codec ID : A_AC3
Duration : 1h 36mn
Bit rate mode : Constant
Bit rate : 384 Kbps
Channel(s) : 6 channels
Channel positions : Front: L C R, Side: L R, LFE
Sampling rate : 48.0 KHz
Frame rate : 31.250 fps (1536 spf)
Compression mode : Lossy
Stream size : 266 MiB (8%)
Title : iTunes
Language : Russian
Default : Yes
Forced : No
Audio #2
ID : 3
Format : AC-3
Format/Info : Audio Coding 3
Mode extension : CM (complete main)
Format settings, Endianness : Big
Codec ID : A_AC3
Duration : 1h 36mn
Bit rate mode : Constant
Bit rate : 384 Kbps
Channel(s) : 6 channels
Channel positions : Front: L C R, Side: L R, LFE
Sampling rate : 48.0 KHz
Frame rate : 31.250 fps (1536 spf)
Compression mode : Lossy
Stream size : 266 MiB (8%)
Title : Original
Language : English
Default : No
Forced : No
Text #1
ID : 4
Format : UTF-8
Codec ID : S_TEXT/UTF8
Codec ID/Info : UTF-8 Plain Text
Duration : 1h 27mn
Bit rate : 36 bps
Count of elements : 636
Stream size : 23.7 KiB (0%)
Title : Full
Language : English
Default : No
Forced : No
Text #2
ID : 5
Format : ASS
Codec ID : S_TEXT/ASS
Codec ID/Info : Advanced Sub Station Alpha
Duration : 1h 28mn
Bit rate : 60 bps
Count of elements : 785
Compression mode : Lossless
Stream size : 38.9 KiB (0%)
Title : SDH
Language : English
Default : No
Forced : No
Menu
00:00:00.000 : en:Opening Sequence
00:04:00.000 : en:I Love You Henry
00:12:07.000 : en:Mercenaries
00:18:41.000 : en:I'm Kidding!
00:26:08.000 : en:You're Half Machine
00:34:15.000 : en:I Can't Do It
00:39:20.000 : en:Just Say Yes
00:43:57.000 : en:I Was So Scared
00:48:52.000 : en:Reboot
00:53:25.000 : en:Don't Compromise My Lab
00:59:36.000 : en:Under My Skin
01:07:16.000 : en:No More Lab
01:11:20.000 : en:The Memory Block
01:15:30.000 : en:The Soldiers
01:24:06.000 : en:You Didn't Make History
01:29:27.000 : en:End Credits

Скриншоты

[Профиль] [ЛС]
Показать сообщения:    

Текущее время: Сегодня 04:30

Часовой пояс: GMT



Вы не можете начинать темы
Вы не можете отвечать на сообщения
Вы не можете редактировать свои сообщения
Вы не можете удалять свои сообщения
Вы не можете голосовать в опросах
Вы не можете прикреплять файлы к сообщениям
Вы не можете скачивать файлы