Хардкор (2015) WEBRip 720р | А | Гоблин

 
Автор Сообщение

достали все ®

Пол:

Стаж: 1 год 8 месяцев

Сообщений: 6515



Награды: 12 (Подробнее)

Mega Seeder 4 (Количество: 1) Mega Releaser 2 (Количество: 1) Mega Releaser 1 (Количество: 1)
Торрент-статистика

Создавать темы 28-Май-2016 08:17

[Цитировать]

Хардкор
Страна: Россия США
Производство: Базелевс Продакшн, Robusto
Год выпуска: 2015
Жанр: боевик, фантастика
Продолжительность: 01:36:25
Режиссер: Илья Найшуллер
Автор сценария: Илья Найшуллер
Продюсеры: Тимур Бекмамбетов, Илья Найшуллер, Екатерина Кононенко
В ролях: Шарлто Копли, Данила Козловский, Хейли Беннетт, Андрей Дементьев, Сергей Шнуров, Кирилл Серебренников, Александр Паль, Светлана Устинова
Описание: Прекрасная супружеская жизнь рядом с очаровательной Эстель — это все, что помнит главный герой после того, как просыпается в неизвестной научной лаборатории, где в чувства его приводит собственная жена. Но супруга тут же оказывается похищенной, и ничего не понимающий главный герой Генри уже вынужден преследовать монстра Акана, который украл его жену.
Теперь ради достижения цели Генри готов на многое. Но позже оказывается, что не только он один является врагом для Акана. У подозрительного Джимми тоже свои планы на злодея. Теперь вместе ребятам предстоит спасти Эстель и предотвратить попытку задействовать армию киборгов в борьбе с человечеством. Им предстоит бороться с самим воплощением зла...

Перевод: Авторский (одноголосый) | Дмитрий «Гоблин» Пучков | звук с CAMRip
Субтитры: корейские (вшитые)-Качество: WEBRip 720р
Формат: МКV
Видео кодек: AVC
Аудио кодек: АС3 | AAC
Видео: 1280x720 (16:9), 29.970 fps, MPEG-4 AVC ~4 107 kbps avg
Аудио №1: 48.0 kHz, AC3 Dolby Digital, 2/0 (L,R) ch, ~192 kbps | RUS / new
Аудио №2: 44.1 kHz, Advanced Audio Codec LC, 2/0 (L,R) ch, ~192 kbps | ENG
Аудио №3: 48.0 kHz, AC3 Dolby Digital, 2/0 (L,R) ch, ~192 kbps | RUS / old
Бюджет: $2 000 000
Дата премьеры (мир): 12 сентября 2015
Дата премьеры (РФ): 7 апреля 2016, «Bazelevs Distribution»
ПРИМЕЧАНИЕ: отредактирована аудиодорожка! для сравнения оставлена старая аудиодорожка №3
ВНИМАНИЕ! Присутствует
ненормативная лексика
Релиз от:

Media Info

General
Unique ID : 219828616730175273758925023272546346189 (0xA5617399655F216EB7A166889AD024CD)
Format : Matroska
Format version : Version 4 / Version 2
Overall bit rate : 4 757 Kbps
Movie name : Hardcore.Henry..2015..WEBRip.720p
Encoded date : UTC 2016-05-28 04:45:21
Writing application : mkvmerge v8.3.0 ('Over the Horizon') 64bit
Writing library : libebml v1.3.1 + libmatroska v1.4.2
DURATION : 00:01:27.104000000
NUMBER_OF_FRAMES : 2722
NUMBER_OF_BYTES : 2090496
_STATISTICS_WRITING_APP : mkvmerge v8.3.0 ('Over the Horizon') 64bit
_STATISTICS_WRITING_DATE_UTC : 2016-05-28 04:45:21
_STATISTICS_TAGS : BPS DURATION NUMBER_OF_FRAMES NUMBER_OF_BYTES
Video
ID : 1
Format : AVC
Format/Info : Advanced Video Codec
Format profile : Baseline@L3.1
Format settings, CABAC : No
Format settings, ReFrames : 1 frame
Codec ID : V_MPEG4/ISO/AVC
Width : 1 280 pixels
Height : 720 pixels
Display aspect ratio : 16:9
Frame rate mode : Constant
Frame rate : 29.970 fps
Color space : YUV
Chroma subsampling : 4:2:0
Bit depth : 8 bits
Scan type : Progressive
Language : English
Default : Yes
Forced : No
DURATION : 00:01:27.087000000
NUMBER_OF_FRAMES : 2610
NUMBER_OF_BYTES : 45485720
_STATISTICS_WRITING_APP : mkvmerge v8.3.0 ('Over the Horizon') 64bit
_STATISTICS_WRITING_DATE_UTC : 2016-05-28 04:45:21
Audio #1
ID : 2
Format : AC-3
Format/Info : Audio Coding 3
Mode extension : CM (complete main)
Format settings, Endianness : Big
Codec ID : A_AC3
Bit rate mode : Constant
Bit rate : 192 Kbps
Channel(s) : 2 channels
Channel positions : Front: L R
Sampling rate : 48.0 KHz
Compression mode : Lossy
Stream size : 1.99 MiB (4%)
Title : AVO [Goblin] (Remastering)
Language : Russian
Default : Yes
Forced : No
DURATION : 00:01:27.075000000
NUMBER_OF_FRAMES : 3750
NUMBER_OF_BYTES : 2089788
_STATISTICS_WRITING_APP : mkvmerge v8.3.0 ('Over the Horizon') 64bit
_STATISTICS_WRITING_DATE_UTC : 2016-05-28 04:45:21
Audio #2
ID : 3
Format : AAC
Format/Info : Advanced Audio Codec
Format profile : LC
Codec ID : A_AAC
Channel(s) : 2 channels
Channel positions : Front: L R
Sampling rate : 44.1 KHz
Compression mode : Lossy
Title : Original
Language : English
Default : No
Forced : No
Audio #3
ID : 4
Format : AC-3
Format/Info : Audio Coding 3
Mode extension : CM (complete main)
Format settings, Endianness : Big
Codec ID : A_AC3
Bit rate mode : Constant
Bit rate : 192 Kbps
Channel(s) : 2 channels
Channel positions : Front: L R
Sampling rate : 48.0 KHz
Compression mode : Lossy
Stream size : 1.99 MiB (4%)
Title : AVO [Goblin] (Old)
Language : Russian
Default : No
Forced : No

Скриншоты

[Профиль] [ЛС]

Создавать темы 28-Май-2016 08:18 (спустя 1 минута)

Топик был перенесен из форума Фильмы 2015 года в форум Фильмы 2015 года
достали все
 
Показать сообщения:    

Текущее время: Сегодня 18:21

Часовой пояс: GMT



Вы не можете начинать темы
Вы не можете отвечать на сообщения
Вы не можете редактировать свои сообщения
Вы не можете удалять свои сообщения
Вы не можете голосовать в опросах
Вы не можете прикреплять файлы к сообщениям
Вы не можете скачивать файлы