Хардбол / Hardball (2001) WEBRip 1080p | D, P

 
Автор Сообщение

BOSS ®

Пол:

Стаж: 3 года 1 месяц

Сообщений: 8145

Откуда: ODESSA



Награды: 22 (Подробнее)

Mega Seeder 3 (Количество: 1) Top Releaser 5 (Количество: 1) Mega Seeder 4 (Количество: 1)
Торрент-статистика

Создавать темы 03-Сен-2017 11:37

[Цитировать]

Информация о фильме
Название: Хардбол
Оригинальное название: Hardball
Год выхода: 2001
Жанр: драма, спорт
Режиссер: Брайан Роббинс / Brian Robbins
В ролях: Киану Ривз, Дайан Лейн, Джон Хоукс, Брайан Хирн, Джулиан Гриффит, Майкл Б. Джордан, А. Делон Эллис мл., Кристофер Лофтон, Майкл Перкинс, Брайан М. Рид и другие
О фильме:
Коннор О'Нил (Ривз)- заядлый игрок. Задолжав однажды крупную сумму букмекерам, которые не постесняются применить к нему силовые меры, он обращается за помощью к своему другу. Вместо денег тот предлагает ему работу - стать на время тренером детской бейсбольной команды, состоящей из одних трудных подростков, к тому же чернокожих. Поняв, что это его единственный шанс, Коннор пусть и нехотя, но соглашается.

Страна: США, Германия
Студия: Paramount Pictures, Fireworks Pictures, Nides/McCormick Productions
Продолжительность: 01:46:03
Перевод: Перевод: Профессиональный (дублированный)
Перевод 2: Профессиональный (многоголосый закадровый)
Файл
Кодек: h.264
Качество: WEBRip 1080p
Видео: 1920x1080, 16:9, 14200 kbps, 23.976 fps
Звук:
Аудио: Русский, AC3, 6 ch, 48 KHz, 448 kbps
Аудио 2: Русский, AC3, 6 ch, 48 KHz, 384 kbps
Аудио 3: Английский, AC3, 6 ch, 48 KHz, 640 kbps
Субтитры: русские, английские (SRT)
Семпл

Скриншоты

M.I

General
Unique ID : 220722608634895230864092306023112980718 (0xA60DA0CD9B82D529A94337DA2A8738EE)
Complete name : D:DownloadsHardball.2001.WEB-DL.1080p.mkv
Format : Matroska
Format version : Version 4 / Version 2
File size : 11.6 GiB
Duration : 1 h 46 min
Overall bit rate mode : Variable
Overall bit rate : 15.7 Mb/s
Encoded date : UTC 2017-09-03 08:29:49
Writing application : mkvmerge v15.0.0 ('Duel with the Devil') 64-bit
Writing library : libebml v1.3.5 + libmatroska v1.4.5
Video
ID : 1
Format : AVC
Format/Info : Advanced Video Codec
Format profile : High@L4
Format settings, CABAC : Yes
Format settings, ReFrames : 4 frames
Codec ID : V_MPEG4/ISO/AVC
Duration : 1 h 46 min
Bit rate mode : Variable
Bit rate : 14.2 Mb/s
Maximum bit rate : 15.0 Mb/s
Width : 1 920 pixels
Height : 1 080 pixels
Display aspect ratio : 16:9
Frame rate mode : Constant
Frame rate : 23.976 (24000/1001) FPS
Color space : YUV
Chroma subsampling : 4:2:0
Bit depth : 8 bits
Scan type : Progressive
Bits/(Pixel*Frame) : 0.286
Stream size : 10.5 GiB (91%)
Writing library : x264 core 148 r2623 d5b2374
Encoding settings : cabac=1 / ref=4 / deblock=1:-1:-1 / analyse=0x3:0x133 / me=umh / subme=9 / psy=1 / psy_rd=1.00:0.15 / mixed_ref=1 / me_range=24 / chroma_me=1 / trellis=2 / 8x8dct=1 / cqm=0 / deadzone=21,11 / fast_pskip=1 / chroma_qp_offset=-3 / threads=34 / lookahead_threads=5 / sliced_threads=0 / nr=150 / decimate=1 / interlaced=0 / bluray_compat=0 / constrained_intra=0 / bframes=8 / b_pyramid=2 / b_adapt=2 / b_bias=0 / direct=3 / weightb=1 / open_gop=0 / weightp=2 / keyint=120 / keyint_min=61 / scenecut=0 / intra_refresh=0 / rc_lookahead=120 / rc=crf / mbtree=1 / crf=18.0 / qcomp=0.60 / qpmin=0 / qpmax=69 / qpstep=4 / vbv_maxrate=15000 / vbv_bufsize=31250 / crf_max=0.0 / nal_hrd=vbr / filler=0 / ip_ratio=1.40 / aq=3:1.00
Default : Yes
Forced : No
Color range : Limited
Color primaries : BT.709
Transfer characteristics : BT.709
Matrix coefficients : BT.709
Audio #1
ID : 2
Format : AC-3
Format/Info : Audio Coding 3
Format settings, Endianness : Big
Codec ID : A_AC3
Duration : 1 h 45 min
Bit rate mode : Constant
Bit rate : 448 kb/s
Channel(s) : 6 channels
Channel positions : Front: L C R, Side: L R, LFE
Sampling rate : 48.0 kHz
Frame rate : 31.250 FPS (1536 spf)
Bit depth : 16 bits
Compression mode : Lossy
Delay relative to video : 11 s 178 ms
Stream size : 339 MiB (3%)
Title : Дублированный
Language : Russian
Service kind : Complete Main
Default : Yes
Forced : No
Audio #2
ID : 3
Format : AC-3
Format/Info : Audio Coding 3
Format settings, Endianness : Big
Codec ID : A_AC3
Duration : 1 h 46 min
Bit rate mode : Constant
Bit rate : 384 kb/s
Channel(s) : 6 channels
Channel positions : Front: L C R, Side: L R, LFE
Sampling rate : 48.0 kHz
Frame rate : 31.250 FPS (1536 spf)
Bit depth : 16 bits
Compression mode : Lossy
Delay relative to video : 968 ms
Stream size : 291 MiB (2%)
Title : Профессиональный (многоголосый, закадровый)
Language : Russian
Service kind : Complete Main
Default : No
Forced : No
Audio #3
ID : 4
Format : E-AC-3
Format/Info : Enhanced Audio Coding 3
Format settings, Endianness : Big
Codec ID : A_EAC3
Duration : 1 h 46 min
Bit rate mode : Constant
Bit rate : 640 kb/s
Channel(s) : 6 channels
Channel positions : Front: L C R, Side: L R, LFE
Sampling rate : 48.0 kHz
Frame rate : 187.500 FPS (256 spf)
Compression mode : Lossy
Stream size : 485 MiB (4%)
Title : English
Language : English
Service kind : Complete Main
Default : No
Forced : No
Text #1
ID : 5
Format : UTF-8
Codec ID : S_TEXT/UTF8
Codec ID/Info : UTF-8 Plain Text
Duration : 1 h 39 min
Bit rate : 63 b/s
Count of elements : 1138
Stream size : 45.9 KiB (0%)
Language : Russian
Default : No
Forced : No
Text #2
ID : 6
Format : UTF-8
Codec ID : S_TEXT/UTF8
Codec ID/Info : UTF-8 Plain Text
Duration : 1 h 45 min
Bit rate : 69 b/s
Count of elements : 1366
Stream size : 53.5 KiB (0%)
Title : English
Language : English
Default : No
Forced : No
Menu
00:00:00.330 : en:00:00:00.330
00:00:33.213 : en:00:00:33.213
00:03:33.268 : en:00:03:33.268
00:04:28.421 : en:00:04:28.421
00:07:01.558 : en:00:07:01.558
00:09:18.922 : en:00:09:18.922
00:15:22.125 : en:00:15:22.125
00:20:51.141 : en:00:20:51.141
00:23:28.159 : en:00:23:28.159
00:26:31.170 : en:00:26:31.170
00:28:20.182 : en:00:28:20.182
00:30:22.190 : en:00:30:22.190
00:31:38.208 : en:00:31:38.208
00:34:41.244 : en:00:34:41.244
00:40:40.263 : en:00:40:40.263
00:43:50.278 : en:00:43:50.278
00:46:24.285 : en:00:46:24.285
00:47:32.303 : en:00:47:32.303
00:50:32.325 : en:00:50:32.325
00:54:14.342 : en:00:54:14.342
00:56:55.385 : en:00:56:55.385
01:04:09.409 : en:01:04:09.409
01:08:09.435 : en:01:08:09.435
01:12:25.446 : en:01:12:25.446
01:14:22.460 : en:01:14:22.460
01:16:43.477 : en:01:16:43.477
01:19:30.515 : en:01:19:30.515
01:25:51.532 : en:01:25:51.532
01:28:36.569 : en:01:28:36.569
01:34:47.583 : en:01:34:47.583
01:37:08.612 : en:01:37:08.612
01:41:55.636 : en:01:41:55.636
[Профиль] [ЛС]
Кто просматривает тему:

Показать сообщения:    

Текущее время: Сегодня 21:35

Часовой пояс: GMT



Вы не можете начинать темы
Вы не можете отвечать на сообщения
Вы не можете редактировать свои сообщения
Вы не можете удалять свои сообщения
Вы не можете голосовать в опросах
Вы не можете прикреплять файлы к сообщениям
Вы не можете скачивать файлы