Харакири 3Д / Ichimei / Hara-Kiri: Death of a Samurai 3D (Такаси Миике / Takashi Miike) [2011, драма, BDRip-AVC] Half OverUnder / Верикальная анаморфная стереопара

 
Автор Сообщение

TorrentFilm ®

Пол:

Стаж: 2 года

Сообщений: 7741



Награды: Нет

Торрент-статистика

Создавать темы 01-Янв-2016 00:08

[Цитировать]

Харакири 3Д
Hara-Kiri: Death of a Samurai 3D
Ichimei 3D
- Год выпуска: 2011
Страна: Япония, Великобритания
Студия: Amuse Soft Entertainment K.K., Dentsu, Kodansha Ltd.
Жанр: драма
Продолжительность: 02:07:40
Перевод: многоголосый закадровый
Русские субтитры: нет
Режиссер: Такаси Миике / Takashi Miike
В ролях: Кодзи Якусё, Наото Такэнака, Хикари Мицушима, Эйта, Шиносуке Ичикава, Казуки Намиока, Мунэтака Аоки, Такаси Сасано
Описание:
Желая достойно умереть, обедневший самурай Хаширо просит позволения совершить ритуальное самоубийство в родовой резиденции клана Ии. Старый воин Кагею пытается отговорить его и рассказывает трагическую историю о молодом ронине Мотоме, обратившемся недавно в резиденцию с той же просьбой. Ужасные подробности смерти Мотома шокируют Хаширо, но он остается тверд в своем решении и просит лишь об одном: чтобы при совершении харакири с ним были три самурая Кагею. Однако по странному стечению обстоятельств эти трое самураев исчезают ...--Проверено на встроенном плейере ТВ Samsung UE-D7000 --Качество: BDrip
Контейнер: MKV
Формат 3D: Half OverUnder / Вертикальная анаморфная стереопара
Порядок ракурсов: левый ракурс первый
Видео кодек: x264
Видео: AVC / 1920x1080p / 23.98fps / 8 234 kbps
Аудио 1: Русский / AC3 / 48000Hz / 5.1 ch / 640 Kbps
Аудио 2: Японский / AC3 / 48000Hz / 5.1 ch / 640 Kbps
Субтитры: Отсутствуют

MediaInfo

General
Complete name : Hara.Kiri.Death.Of.A.Samurai.2011.3D.H-OU.RusMVO.Jpn.1080p.Bluray.x264.z-man.mkv
Format : Matroska
File size : 8.66 GiB
Duration : 2h 7mn
Overall bit rate : 9 707 Kbps
Encoded date : UTC 2012-09-13 15:14:31
Writing application : mkvmerge v3.4.0 ('Rapunzel') сборка от May 15 2010 09:38:20
Writing library : libebml v0.8.0 + libmatroska v0.9.0
Video
ID : 1
Format : AVC
Format/Info : Advanced Video Codec
Format profile : High@L4.1
Format settings, CABAC : Yes
Format settings, ReFrames : 4 frames
Codec ID : V_MPEG4/ISO/AVC
Duration : 2h 7mn
Bit rate : 8 234 Kbps
Width : 1 920 pixels
Height : 1 080 pixels
Display aspect ratio : 16:9
Frame rate : 23.976 fps
Color space : YUV
Chroma subsampling : 4:2:0
Bit depth : 8 bits
Scan type : Progressive
Bits/(Pixel*Frame) : 0.166
Stream size : 7.34 GiB (85%)
Title : Hara.Kiri.Death.Of.A.Samurai.2011.3D.H-OU.DL.1080p.Bluray.x264.z-man
Writing library : x264 core 124 r2197 69a0443
Encoding settings : cabac=1 / ref=4 / deblock=1:-3:-3 / analyse=0x3:0x113 / me=umh / subme=7 / psy=1 / psy_rd=1.00:0.15 / mixed_ref=1 / me_range=16 / chroma_me=1 / trellis=1 / 8x8dct=1 / cqm=0 / deadzone=21,11 / fast_pskip=1 / chroma_qp_offset=-3 / threads=12 / sliced_threads=0 / nr=0 / decimate=1 / interlaced=0 / bluray_compat=0 / constrained_intra=0 / bframes=3 / b_pyramid=2 / b_adapt=1 / b_bias=0 / direct=3 / weightb=1 / open_gop=0 / weightp=2 / keyint=250 / keyint_min=23 / scenecut=40 / intra_refresh=0 / rc_lookahead=40 / rc=crf / mbtree=1 / crf=20.0 / qcomp=0.60 / qpmin=10 / qpmax=69 / qpstep=4 / ip_ratio=1.40 / aq=1:1.00
Audio #1
ID : 2
Format : AC-3
Format/Info : Audio Coding 3
Mode extension : CM (complete main)
Codec ID : A_AC3
Duration : 2h 7mn
Bit rate mode : Constant
Bit rate : 640 Kbps
Channel(s) : 6 channels
Channel positions : Front: L C R, Side: L R, LFE
Sampling rate : 48.0 KHz
Bit depth : 16 bits
Stream size : 584 MiB (7%)
Title : Russian MVO
Language : Russian
Audio #2
ID : 3
Format : AC-3
Format/Info : Audio Coding 3
Mode extension : CM (complete main)
Codec ID : A_AC3
Duration : 2h 7mn
Bit rate mode : Constant
Bit rate : 640 Kbps
Channel(s) : 6 channels
Channel positions : Front: L C R, Side: L R, LFE
Sampling rate : 48.0 KHz
Bit depth : 16 bits
Stream size : 584 MiB (7%)
Title : Original
Language : Japanese
Menu
00:00:00.000 : en:00:00:00.000
00:09:01.750 : en:00:09:01.750
00:18:20.725 : en:00:18:20.725
00:32:21.690 : en:00:32:21.690
00:39:33.162 : en:00:39:33.162
00:51:41.390 : en:00:51:41.390
01:01:06.746 : en:01:01:06.746
01:10:27.306 : en:01:10:27.306
01:20:22.609 : en:01:20:22.609
01:35:07.869 : en:01:35:07.869
01:46:27.756 : en:01:46:27.756
01:58:41.614 : en:01:58:41.614
Спасибо за рип z-man и The3DTeam
[Профиль] [ЛС]
Показать сообщения:    

Текущее время: Сегодня 22:32

Часовой пояс: GMT



Вы не можете начинать темы
Вы не можете отвечать на сообщения
Вы не можете редактировать свои сообщения
Вы не можете удалять свои сообщения
Вы не можете голосовать в опросах
Вы не можете прикреплять файлы к сообщениям
Вы не можете скачивать файлы