Ханна / Hanna (Сезон 1 , Серия 1-8 из 8) ( Сара Адина, Андерс Энгстрем, Джон Джонс) [2019,Боевик, драма,WEB-DLRip 1080p] [LostFilm+TVShows+Jaskier+NewStudio+HDRezka+Eng]+[Subs Rus , ENG]

 
Author Message

Враг Нароода ®

Gender:

Longevity: 4 years 2 months

Posts: 270



: 2 ()

Mega Seeder 1 (1) За внесенный вклад в развитие сайта (1)
Торрент-статистика

Post 05-Mar-2019 19:36

[Quote]

-- --Ханна / Hanna Сезон 1 , Серия 1-8 из 8 - Полный Комплект-- --Год выпуска: 2019
Выпущено: США , Amazon Studios, NBC Universal International, Tomorrow Studios, Working Title Television
Жанр:Боевик, драма
Продолжительность:00:50:00
Сезон:1
Серия:1-8
Количество серий в сезоне:8--Озвучка #1: Профессиональный многоголосый - LostFilm - Русский
Озвучка #2: Профессиональный многоголосый - TVShows - Русский
Озвучка #3: Профессиональный многоголосый - Jaskier - Русский
Озвучка #4: Профессиональный многоголосый - NewStudio Е01 - Е04- Русский
Озвучка #5: Профессиональный многоголосый - HDRezka - Русский
Озвучка #6: Профессиональный многоголосый -Английский - Оригинал
Субтитры: Russian , English, English SDH
--Релиз Без Рекламы --MDB --Режиссеры:
Сара Адина, Андерс Энгстрем, Джон Джонс--В ролях: Эсме Крид-Майлс, Мирей Инос, Юэль Киннаман, Рианна Баррето, Фелисьен Джаттнер, Халид Абдалла, Кемаал Дин-Эллис, Фалдут Шарма, Бенно Фюрман, Катарина Хайер, Ноа Тейлор, Урсула Вернер, Джасмин Брейнберг, Лео Флэнеган, Варада Сету-- 18-летняя Ханна всю жизнь прожила в лесах Северной Польши, где её с юных лет тренировал Эрик, прожженный наёмник и старый солдат. Изолированный от цивилизации, он обучил Ханну всем возможным методам выживания. Эрик хотел защитить её от остального мира, но сама Ханна очень хочет узнать тайну своего происхождения.-- --Качество :WEB-DLRip 1080p
Формат: MKV
Видео кодек: H264
Видео: 7454Кбит/сек,1920х1080(16.9),в 23.976кадр/сек,AVC (High@L4)(CABAC/4 Ref Frames)--Аудио Кодек:AC3
Аудио #1:AC3 640 Kbps, 48.0 KHz, 6 ch- Lostfilm -Русский
Аудио #2:AC3 384 Kbps, 48.0 KHz, 6 ch- TVShows -Русский
Аудио #3:AC3 384 Kbps, 48.0 KHz, 6 ch- Jaskier -Русский
Аудио #4:AC3 384 Kbps, 48.0 KHz, 6 ch- NewStudio -Русский
Аудио #5:AC3 384 Kbps, 48.0 KHz, 6 ch- HDRezka -Русский
Аудио #6: AC3, 640 Kbps, 48.0 KHz,6 ch - - English - Оригинал--

Доп. информация:

Звуковая дорожка сделана путем наложения чистого голоса озвучивателей на центральный канал оригинальной дорожки. Качество идентично звуковой дорожке.
--

Список эпизодов сезона


1 сезон 1 серия - Лес - Forest
1 сезон 2 серия - Друг - Friend
1 сезон 3 серия - Город - City
1 сезон 4 серия - Отец - Father
1 сезон 5 серия - Городок - Town
1 сезон 6 серия - Мать - Mother
1 сезон 7 серия - Дорога - Road
1 сезон 8 серия - Утракс - Utrax
--

MediaInfo сезона

Общее
Уникальный идентификатор : 332921767647238744031635379479001817963 (0xFA76666FE757B20A9966B87F1B95E36B)
Полное имя : C:\Users\Russian Patriot\Downloads\ХАННА - Hanna\Hanna_2019_S01_Н264_DD5.1_N.B_HD_1080_4xRus_Eng\Hanna_2019_S01E01_Н264_DD5.1_N.B_HD_1080_4xRus_Eng.mkv
Формат : Matroska
Версия формата : Version 4
Размер файла : 3,46 Гбайт
Продолжительность : 48 м. 13 с.
Общий поток : 10,3 Мбит/сек
Название фильма : Hanna 2019 S01Е01 @ Nikolai.Baranov & PIRATIYA
Дата кодирования : UTC 2019-04-08 16:07:38
Программа кодирования : mkvmerge v32.0.0 ('Astral Progressions') 64-bit
Библиотека кодирования : libebml v1.3.7 + libmatroska v1.5.0
Обложка : Yes
Attachments : small_cover.jpg / cover.jpg
Видео
Идентификатор : 1
Формат : AVC
Формат/Информация : Advanced Video Codec
Профиль формата : High@L4
Настройки формата : CABAC / 4 Ref Frames
Параметр CABAC формата : Да
Параметр RefFrames формата : 4 кадра
Идентификатор кодека : V_MPEG4/ISO/AVC
Продолжительность : 48 м. 13 с.
Вид битрейта : Постоянный
Битрейт : 7454 Кбит/сек
Номинальный битрейт : 10000 Кбит/сек
Ширина : 1920 пикселей
Высота : 1080 пикселей
Соотношение сторон : 16:9
Режим частоты кадров : Постоянный
Частота кадров : 23,976 (24000/1001) кадра/сек
Цветовое пространство : YUV
Субдискретизация насыщенности : 4:2:0
Битовая глубина : 8 бит
Тип развёртки : Прогрессивная
Бит/(Пиксели*Кадры) : 0.150
Размер потока : 2,51 Гбайт (73%)
Заголовок : Hanna_2019_S01E01_Н264_DD5.1_N.B_HD_1080_4xRus_Eng
Язык : Russian
Default : Да
Forced : Нет
Цветовой диапазон : Limited
Основные цвета : BT.709
Характеристики трансфера : BT.709
Коэффициенты матрицы : BT.709
Аудио #1
Идентификатор : 5
Формат : AC-3
Формат/Информация : Audio Coding 3
Коммерческое название : Dolby Digital
Идентификатор кодека : A_AC3
Продолжительность : 48 м. 13 с.
Вид битрейта : Постоянный
Битрейт : 640 Кбит/сек
Каналы : 6 каналов
Channel layout : L R C LFE Ls Rs
Частота : 48,0 КГц
Частота кадров : 31,250 кадров/сек (1536 SPF)
Битовая глубина : 16 бит
Метод сжатия : С потерями
Размер потока : 221 Мбайт (6%)
Заголовок : MVO LostFilm @DD5.1 AC3, 640 Kbps, 48.0 KHz, 6 ch
Язык : Russian
ServiceKind/String : Complete Main
Default : Да
Forced : Нет
Аудио #2
Идентификатор : 6
Формат : AC-3
Формат/Информация : Audio Coding 3
Коммерческое название : Dolby Digital
Идентификатор кодека : A_AC3
Продолжительность : 48 м. 13 с.
Вид битрейта : Постоянный
Битрейт : 384 Кбит/сек
Каналы : 6 каналов
Channel layout : L R C LFE Ls Rs
Частота : 48,0 КГц
Частота кадров : 31,250 кадров/сек (1536 SPF)
Битовая глубина : 16 бит
Метод сжатия : С потерями
Размер потока : 132 Мбайт (4%)
Заголовок : MVO TVShows @DD5.1 AC3, 384 Kbps, 48.0 KHz, 6 ch
Язык : Russian
ServiceKind/String : Complete Main
Default : Нет
Forced : Нет
Аудио #3
Идентификатор : 7
Формат : AC-3
Формат/Информация : Audio Coding 3
Коммерческое название : Dolby Digital
Идентификатор кодека : A_AC3
Продолжительность : 48 м. 13 с.
Вид битрейта : Постоянный
Битрейт : 384 Кбит/сек
Каналы : 6 каналов
Channel layout : L R C LFE Ls Rs
Частота : 48,0 КГц
Частота кадров : 31,250 кадров/сек (1536 SPF)
Битовая глубина : 16 бит
Метод сжатия : С потерями
Размер потока : 132 Мбайт (4%)
Заголовок : MVO Jaskier @DD5.1 AC3, 384 Kbps, 48.0 KHz, 6 ch
Язык : Russian
ServiceKind/String : Complete Main
Default : Нет
Forced : Нет
Аудио #4
Идентификатор : 8
Формат : AC-3
Формат/Информация : Audio Coding 3
Коммерческое название : Dolby Digital
Идентификатор кодека : A_AC3
Продолжительность : 48 м. 13 с.
Вид битрейта : Постоянный
Битрейт : 384 Кбит/сек
Каналы : 6 каналов
Channel layout : L R C LFE Ls Rs
Частота : 48,0 КГц
Частота кадров : 31,250 кадров/сек (1536 SPF)
Битовая глубина : 16 бит
Метод сжатия : С потерями
Размер потока : 132 Мбайт (4%)
Заголовок : MVO NewStudio @DD5.1 AC3, 384 Kbps, 48.0 KHz, 6 ch
Язык : Russian
ServiceKind/String : Complete Main
Default : Нет
Forced : Нет
Аудио #5
Идентификатор : 9
Формат : AC-3
Формат/Информация : Audio Coding 3
Коммерческое название : Dolby Digital
Идентификатор кодека : A_AC3
Продолжительность : 48 м. 13 с.
Вид битрейта : Постоянный
Битрейт : 640 Кбит/сек
Каналы : 6 каналов
Channel layout : L R C LFE Ls Rs
Частота : 48,0 КГц
Частота кадров : 31,250 кадров/сек (1536 SPF)
Битовая глубина : 16 бит
Метод сжатия : С потерями
Размер потока : 221 Мбайт (6%)
Заголовок : Original@DD5.1 AC3 ,640 Kbps, 48.0 KHz, 6 ch
Язык : English
ServiceKind/String : Complete Main
Default : Нет
Forced : Нет
Аудио #6
Идентификатор : 10
Формат : AC-3
Формат/Информация : Audio Coding 3
Коммерческое название : Dolby Digital
Идентификатор кодека : A_AC3
Продолжительность : 48 м. 13 с.
Вид битрейта : Постоянный
Битрейт : 384 Кбит/сек
Каналы : 6 каналов
Channel layout : L R C LFE Ls Rs
Частота : 48,0 КГц
Частота кадров : 31,250 кадров/сек (1536 SPF)
Битовая глубина : 16 бит
Метод сжатия : С потерями
Размер потока : 132 Мбайт (4%)
Заголовок : MVO HDRezka @DD5.1 AC3, 384 Kbps, 48.0 KHz, 6 ch
Язык : Russian
ServiceKind/String : Complete Main
Default : Нет
Forced : Нет
Текст #1
Идентификатор : 2
Формат : UTF-8
Идентификатор кодека : S_TEXT/UTF8
Идентификатор кодека/Информация : UTF-8 Plain Text
Продолжительность : 45 м. 59 с.
Битрейт : 37 бит/сек
ElementCount : 330
Размер потока : 12,5 Кбайт (0%)
Заголовок : Rus
Язык : Russian
Default : Да
Forced : Нет
Текст #2
Идентификатор : 3
Формат : UTF-8
Идентификатор кодека : S_TEXT/UTF8
Идентификатор кодека/Информация : UTF-8 Plain Text
Продолжительность : 47 м. 26 с.
Битрейт : 34 бит/сек
ElementCount : 560
Размер потока : 12,1 Кбайт (0%)
Заголовок : Original - SDH
Язык : English
Default : Нет
Forced : Нет
Текст #3
Идентификатор : 4
Формат : UTF-8
Идентификатор кодека : S_TEXT/UTF8
Идентификатор кодека/Информация : UTF-8 Plain Text
Продолжительность : 44 м. 27 с.
Битрейт : 23 бит/сек
ElementCount : 337
Размер потока : 7,53 Кбайт (0%)
Заголовок : Original
Язык : English
Default : Нет
Forced : Нет
Меню
00:00:00.000 : en:Amazon Original / :Глава 01 / :Глава 01 / :Глава 01 / :Глава 01 / :Глава 01 / :Глава 01 / :Глава 01 / :Глава 01 / :Глава 01
00:00:05.000 : en:A mission to retrieve precious cargo
00:04:47.000 : en:The hunter and the hunted
00:10:42.000 : en:Title Sequence
00:10:49.000 : en:Life lessons never stop
00:16:06.000 : en:Always questions but never answers
00:19:59.000 : en:Hanna's curiosity gets the best of her
00:26:21.000 : en:The line between secrets and lies
00:28:30.000 : en:Not all people are dangerous
00:32:35.000 : en:Arvo shows Hanna something amazing
00:35:16.000 : en:Hanna learns what she's been training for
00:38:27.000 : en:Government agencies investigate a red flag
00:40:25.000 : en:The plan is put into motion
00:46:28.000 : en:End Credits
--

Скриншоты

-- --

Как закачать отдельный файл

1. Открыть торрент
2. Снять галки с тех файлов торрента, которые мы не хотим закачивать. Оставляем только на нужных нам файлах (файле).
3. Нажать О.К.
В клиенте utorrent
Инструкция
1) Открыть торрент

2) Снять галки с тех файлов торрента, которые мы не хотим закачивать:
* либо вручную, снимая с каждого файла галку( скрин №1)
* либо, нажав кнопку "Снять метки (Select None)", сняв сразу со всех файлов(скрин №2)
№1

№2

Оставляем только на нужных нам файлах (файле).

3)Нажать О.К
-- -- --Внимание!!! 06.05. 2019. РАЗДАЧА ОБНОВЛЕНА. ДОБАВЛЕНА - 7-8 - СЕРИЯ. Финал Сезона ОБНОВИТЕ ТОРЕНТ ФАЙЛ. ПРИЯТНОГО ПРОСМОТРА . Поблагодарить:
ЯД: 410017546713876
--Релиз от: Nikolai.Baranov & PIRATIYA -- -- -- --Время раздачи : 24/7--
[Profile] [PM]
Display posts from previous:    

The time now is: Today 05:26

All times are GMT



You cannot post new topics in this forum
You cannot reply to topics in this forum
You cannot edit your posts in this forum
You cannot delete your posts in this forum
You cannot vote in polls in this forum
You cannot attach files in this forum
You cannot download files in this forum