Хакеры / Hackers (1995) HDTVRip

 
Автор Сообщение

sergej644 ®

Пол:

Стаж: 4 года 11 месяцев

Сообщений: 6040

Откуда: Soviet Union



Награды: Нет

Торрент-статистика

Создавать темы 19-Окт-2014 12:36

[Цитировать]

-Хакеры / Hackers (1995) HDTVRipХакни планету!-Год выпуска: 1995
Жанр: Боевик, Триллер, Драма
Описание фильма:
Развлекаясь манипуляциями в коммерческих сетях, начинающий хакер делает почти невозможное: взламывает защиту секретного компьютера Гибсон в корпорации Эллингтон. При этом он случайно подключается к схеме хищения средств, искусно замаскированной кем-то под компьютерный вирус, действие которого может привести к глобальной экологической катастрофе. Молодой хакер и его приятели в доли секунды превращаются в подозреваемых. Охоту за ними начинает ФБР и главный компьютерщик корпорации Эллингтон по кличке Чума (Фишер Стивенс). Однако молодые хакеры раскрывают губительность истинных планов Чумы и объединяют свои технические знания, чтобы запустить массированную киберпространственную атаку, которая должна очистить их от подозрений и предотвратить экологическую катастрофу.
Режиссер: Иэн Софтли
Актеры: Джонни Ли Миллер, Анжелина Джоли, Фишер Стивенс, Джесси Бредфорт, Метью Лиллард, Лоуренс Мейсон, Реноли Сантьяго, Уендел Пирс
Продолжительность: 01:40:58
Качество видео: HDTVRip
Перевод: Полное дублирование, многоголосый закадровый, авторский
Язык субтитров: Русские
Вид субтитров: Отдельным файлом

Видео: XVID, 720x304, 25fps, 1861kbps
Аудио #1: AC3, 48 kHz, 2 ch, 192 kbps - Полное дублирование (Варус-Видео)
Аудио #2: |отдельно| AC3, 48 kHz, 2 ch, 192 kbps - Многоголосый закадровый (ТВ1000)
Аудио #3: |отдельно| AC3, 48 kHz, 2 ch, 192 kbps - Многоголосый закадровый (СТС)
Аудио #4: |отдельно| AC3, 48 kHz, 2 ch, 192 kbps - Многоголосый закадровый (НТВ)
Аудио #5: |отдельно| AC3, 48 kHz, 6 ch, 384 kbps - Многоголосый закадровый (НТВ+)
Аудио #6: |отдельно| AC3, 48 kHz, 6 ch, 384 kbps - Одноголосый закадровый (Визгунов)
Аудио #7: |отдельно| AC3, 48 kHz, 6 ch, 384 kbps - Одноголосый закадровый (Карцев)
Аудио #8: |отдельно| AC3, 48 kHz, 6 ch, 384 kbps - Оригинальная дорожка (Английский)

MediaInfo

General
Complete name : E:\!torents\Хакеры\[1995] Hackers.avi
Format : AVI
Format/Info : Audio Video Interleave
File size : 1.45 GiB
Duration : 1h 40mn
Overall bit rate : 2 063 Kbps
Writing application : VirtualDubMod 1.5.10.2 (build 2540/release)
Writing library : VirtualDubMod build 2540/release
Copyright : fozzy412
Video
ID : 0
Format : MPEG-4 Visual
Format profile : Advanced Simple@L5
Format settings, BVOP : 2
Format settings, QPel : No
Format settings, GMC : No warppoints
Format settings, Matrix : Custom
Codec ID : XVID
Codec ID/Hint : XviD
Duration : 1h 40mn
Bit rate : 1 861 Kbps
Width : 720 pixels
Height : 304 pixels
Display aspect ratio : 2.35:1
Frame rate : 25.000 fps
Color space : YUV
Chroma subsampling : 4:2:0
Bit depth : 8 bits
Scan type : Progressive
Compression mode : Lossy
Bits/(Pixel*Frame) : 0.340
Stream size : 1.31 GiB (90%)
Writing library : XviD 56
Audio
ID : 1
Format : AC-3
Format/Info : Audio Coding 3
Mode extension : CM (complete main)
Codec ID : 2000
Duration : 1h 40mn
Bit rate mode : Constant
Bit rate : 192 Kbps
Channel(s) : 2 channels
Channel positions : Front: L R
Sampling rate : 48.0 KHz
Bit depth : 16 bits
Compression mode : Lossy
Stream size : 139 MiB (9%)
Alignment : Split accross interleaves
Interleave, duration : 40 ms (1.00 video frame)
Interleave, preload duration : 500 ms
Title : Полное дублирование (Варус-Видео)
Скриншоты: Время раздачи: с 23:00 до 8:30, или, Пн-Пт с 18:00 до 22:00, Сб-Вс с 09:00 до 23:30--
[Профиль] [ЛС]

triada

Пол:

Стаж: 2 года 2 месяца

Сообщений: 6



Награды: Нет

Торрент-статистика

Создавать темы 19-Окт-2014 12:38 (спустя 2 минуты)

[Цитировать]

Посути классика.
Один из первых фильмов про Хакеров.
Анжелина Джоли совсем молодая в этом фильме.
[Профиль] [ЛС]
Показать сообщения:    

Текущее время: Сегодня 22:42

Часовой пояс: GMT



Вы не можете начинать темы
Вы не можете отвечать на сообщения
Вы не можете редактировать свои сообщения
Вы не можете удалять свои сообщения
Вы не можете голосовать в опросах
Вы не можете прикреплять файлы к сообщениям
Вы не можете скачивать файлы