Футбол. Чемпионат Испании 2014-15. 28-й тур. Эль Класико. Барселона - Реал Мадрид [22.03] (2015) HDTV 1080i

 
Автор Сообщение

sergej644 ®

Пол:

Стаж: 4 года 11 месяцев

Сообщений: 6046

Откуда: Soviet Union



Награды: Нет

Торрент-статистика

Создавать темы 23-Мар-2015 22:15

[Цитировать]



Вид спорта: Футбол
Год выпуска: 22.03.2015
Язык комментариев: (В.Уткин)
Участники: Барселона - Реал Мадрид
Описание: 22 марта 2015, воскресенье. 23:00 МСК
28-й тур
Стадион: Камп Ноу (Барселона, Испания) , вместимость: 99354
Главный судья: Матеу Лаос (Валенсия, Испания)
Автор рипа.записи: Mr/ Drax
Качество: HDTV
Продолжительность: 01:44:44
Формат: TS
Видео кодек: H.264
Аудио кодек: MP2
Свойства видео: 1920x1080, 25,000 кадров/сек, 10.8 Mbps
Свойства аудио: 48,0 КГц, 2ch stereo, 192 Кбит/сек

Составы

Результат

2-1

Media Info

Полное имя : H:FootballSpainLa Liga.28 day. Barcelona vs. Real.Madrid. HDTV 1080i. 22.03.2015.ts
Формат : MPEG-TS
Размер файла : 8,44 Гбайт
Продолжительность : 1 ч. 44 м.
Режим общего битрейта : Переменный
Общий поток : 11,5 Мбит/сек
Видео
Идентификатор : 325 (0x145)
Идентификатор меню : 14105 (0x3719)
Формат : AVC
Формат/Информация : Advanced Video Codec
Профиль формата : High@L4.0
Параметр CABAC формата : Да
Параметр ReFrames формата : 4 кадра
Идентификатор кодека : 27
Продолжительность : 1 ч. 44 м.
Битрейт : 10,8 Мбит/сек
Ширина : 1920 пикселей
Высота : 1080 пикселей
Соотношение сторон : 16:9
Частота кадров : 25,000 кадров/сек
Стандарт вещания : Component
Цветовое пространство : YUV
Субдискретизация насыщенности : 4:2:0
Битовая глубина : 8 бит
Тип развёртки : Чересстрочная
Порядок развёртки : Верхнее поле первое
Бит/(Пиксели*Кадры) : 0.208
Размер потока : 7,88 Гбайт (93%)
Основные цвета : BT.709
Характеристики трансфера : BT.709
Коэффициенты матрицы : BT.709
colour_range : Limited
Аудио
Идентификатор : 405 (0x195)
Идентификатор меню : 14105 (0x3719)
Формат : MPEG Audio
Версия формата : Version 1
Профиль формата : Layer 2
Идентификатор кодека : 3
Продолжительность : 1 ч. 44 м.
Вид битрейта : Постоянный
Битрейт : 192 Кбит/сек
Каналы : 2 канала
Частота : 48,0 КГц
Метод сжатия : С потерями
Размер потока : 144 Мбайт (2%)
Язык : Russian
[Профиль] [ЛС]

Создавать темы 02-Авг-2015 23:20 (спустя 4 месяца 11 дней)

Топик был перенесен из форума Футбол в форум Футбол
sergej644
 
Кто просматривает тему:

Форум Тема Автор Размер
Футбол HФутбол. Чемпионат Испании 2015-16. 31-й тур. Барселона - Реал [02.04] (2016) DTVRip Russian Mafia 1.41 GB
XXXI Летние Олимпийские игры. Рио-де-Жанейро 2016 (Бразилия) XXXI Летние Олимпийские Игры. Рио-де-Жанейро (Бразилия). Футбол. Мужчины. Группа B. 1-й тур. Нигерия - Япония [04.08] (2016) HDTVRip 720p | 50 fps ODESSA 3.08 GB
XXXI Летние Олимпийские игры. Рио-де-Жанейро 2016 (Бразилия) XXXI Летние Олимпийские Игры. Рио-де-Жанейро (Бразилия). Футбол. Мужчины. Группа C. 1-й тур. Мексика - Германия [04.08] (2016) IPTVRip-AVC Russian Mafia 1.42 GB
XXXI Летние Олимпийские игры. Рио-де-Жанейро 2016 (Бразилия) XXXI Летние Олимпийские Игры. Рио-де-Жанейро (Бразилия). Футбол. Мужчины. Группа C. 1-й тур. Фиджи - Мексика [07.08] (2016) IPTVRip 720p Russian Mafia 2.99 GB
XXXI Летние Олимпийские игры. Рио-де-Жанейро 2016 (Бразилия) XXXI Летние Олимпийские Игры. Рио-де-Жанейро (Бразилия). Футбол. Мужчины. Группа C. 2-й тур. Бразилия - Ирак [07.08] (2016) IPTVRip 720p BOSS 3.19 GB
XXXI Летние Олимпийские игры. Рио-де-Жанейро 2016 (Бразилия) XXXI Летние Олимпийские Игры. Рио-де-Жанейро (Бразилия). Футбол. Мужчины. Группа D. 2-й тур. Аргентина - Алжир [07.08] (2016) IPTVRip 720p ODESSA 3.07 GB
XXXI Летние Олимпийские игры. Рио-де-Жанейро 2016 (Бразилия) XXXI Летние Олимпийские Игры. Рио-де-Жанейро (Бразилия). Футбол. Мужчины. Группа А. 1-й тур. Ирак - Дания [04.08] (2016) HDTVRip 720p | 50 fps ODESSA 3.19 GB
Культура и спорт [Журнал/Газета] [Еженедельник] "Футбол"(Москва) [1960-1970, 2008-2013 PDF, RUS] sergej644 14.17 GB
Показать сообщения:    

Текущее время: Сегодня 00:38

Часовой пояс: GMT



Вы не можете начинать темы
Вы не можете отвечать на сообщения
Вы не можете редактировать свои сообщения
Вы не можете удалять свои сообщения
Вы не можете голосовать в опросах
Вы не можете прикреплять файлы к сообщениям
Вы не можете скачивать файлы