Футбол. Чемпионат Европы 2016. Квалификация. Группа D. 2-й тур. Польша - Германия [RTL HD] [11.10] (2014) Str

 
Автор Сообщение

Белочка ®

Пол:

Стаж: 5 лет 1 месяц

Сообщений: 2089



Награды: 1 (Подробнее)

Girls (Количество: 1)
Торрент-статистика

Создавать темы 12-Окт-2014 10:31

[Цитировать]

Чемпионат Европы 2016 / Квалификация / Группа D / 2-й тур / Польша - Германия / RTL HD
Вид спорта: Футбол
Участники: Польша - Германия
Дата/Год выпуска: 2014.10.11
Язык комментариев: немецкий
Описание: 11 октября 2014, суббота
Отборочный матч чемпионата Европы по футболу 2016 года
Автор рипа/записи: Toni_Perolo
Доп. информация:
Перекладываю "из одного кармана в другой".
Качество не ахти какое, но выбирать не приходится - как-то негусто совсем с релизами этого матча.
Качество: Stream
Формат видео: TS
Видео: 960x540, 1400 Kbps, 25.000 fps
Аудио: 96Kbps, 44KHz, 2 channels

MediaInfo

General
ID : 32523 (0x7F0B)
Complete name : R:2014.10.11.Euro2016.Qualifying.GroupD.2tour.Poland-Germany1 half.ts
Format : MPEG-TS
File size : 550 MiB
Duration : 47mn 26s
Overall bit rate mode : Variable
Overall bit rate : 1 623 Kbps
Video
ID : 69 (0x45)
Menu ID : 1 (0x1)
Format : AVC
Format/Info : Advanced Video Codec
Format profile : High@L3.1
Format settings, CABAC : Yes
Format settings, ReFrames : 4 frames
Codec ID : 27
Duration : 47mn 24s
Bit rate mode : Variable
Bit rate : 1 404 Kbps
Maximum bit rate : 2 100 Kbps
Width : 960 pixels
Height : 540 pixels
Display aspect ratio : 16:9
Frame rate : 25.000 fps
Color space : YUV
Chroma subsampling : 4:2:0
Bit depth : 8 bits
Scan type : Progressive
Bits/(Pixel*Frame) : 0.108
Stream size : 490 MiB (89%)
Writing library : x264 core 115 r2013 6fce39a
Encoding settings : cabac=1 / ref=1 / deblock=1:-1:-1 / analyse=0x3:0x13 / me=hex / subme=2 / psy=1 / psy_rd=1.00:0.15 / mixed_ref=0 / me_range=16 / chroma_me=1 / trellis=0 / 8x8dct=1 / cqm=0 / deadzone=21,11 / fast_pskip=1 / chroma_qp_offset=0 / threads=12 / sliced_threads=0 / nr=0 / decimate=1 / interlaced=0 / bluray_compat=0 / constrained_intra=0 / bframes=3 / b_pyramid=2 / b_adapt=1 / b_bias=0 / direct=1 / weightb=1 / open_gop=0 / weightp=1 / keyint=50 / keyint_min=5 / scenecut=40 / intra_refresh=0 / rc_lookahead=10 / rc=abr / mbtree=1 / bitrate=1404 / ratetol=1.0 / qcomp=0.60 / qpmin=10 / qpmax=51 / qpstep=4 / vbv_maxrate=2100 / vbv_bufsize=2100 / nal_hrd=vbr / ip_ratio=1.40 / aq=1:1.00
Audio
ID : 68 (0x44)
Menu ID : 1 (0x1)
Format : MPEG Audio
Format version : Version 1
Format profile : Layer 3
Mode : Joint stereo
Mode extension : MS Stereo
Codec ID : 3
Duration : 47mn 26s
Bit rate mode : Constant
Bit rate : 96.0 Kbps
Channel(s) : 2 channels
Sampling rate : 44.1 KHz
Compression mode : Lossy
Delay relative to video : -154ms
Stream size : 32.6 MiB (6%)

Составы

Польша:
1. Wojciech Szczesny, 4.Lukasz Szukala, 6.Tomasz Jodlowiec, 7.Arek Milik, 8.Grzegorz Krychowiak, 9.Robert Lewandowski, 11.Kamil Grosicki, 13.Maciej Rybus, 14.Jakub Wawrzyniak, 15.Kamil Glik, 20.Lukasz Piszczek
Германия:
1.Manuel Neuer, 5.Mats Hummels, 9.Andre Schurrle, 11.Karim Bellarabi, 13.Tomas Muller, 15.Erik Durm, 16.Antonio Rudiger, 17.Jerome Boateng, 18.Toni Kroos, 19.Mario Gotze, 20.Christoph Kramer

Продолжительность

47мин 24сек + 49мин 47сек

Скриншоты

[Профиль] [ЛС]

Создавать темы 02-Авг-2015 23:21 (спустя 9 месяцев 21 день)

Топик был перенесен из форума Футбол в форум Футбол
sergej644
 
Кто просматривает тему:

Форум Тема Автор Размер
Футбол HФутбол. Чемпионат Испании 2015-16. 31-й тур. Барселона - Реал [02.04] (2016) DTVRip Russian Mafia 1.41 GB
XXXI Летние Олимпийские игры. Рио-де-Жанейро 2016 (Бразилия) XXXI Летние Олимпийские Игры. Рио-де-Жанейро (Бразилия). Футбол. Мужчины. Группа B. 1-й тур. Нигерия - Япония [04.08] (2016) HDTVRip 720p | 50 fps ODESSA 3.08 GB
XXXI Летние Олимпийские игры. Рио-де-Жанейро 2016 (Бразилия) XXXI Летние Олимпийские Игры. Рио-де-Жанейро (Бразилия). Футбол. Мужчины. Группа C. 1-й тур. Мексика - Германия [04.08] (2016) IPTVRip-AVC Russian Mafia 1.42 GB
XXXI Летние Олимпийские игры. Рио-де-Жанейро 2016 (Бразилия) XXXI Летние Олимпийские Игры. Рио-де-Жанейро (Бразилия). Футбол. Мужчины. Группа C. 1-й тур. Фиджи - Мексика [07.08] (2016) IPTVRip 720p Russian Mafia 2.99 GB
XXXI Летние Олимпийские игры. Рио-де-Жанейро 2016 (Бразилия) XXXI Летние Олимпийские Игры. Рио-де-Жанейро (Бразилия). Футбол. Мужчины. Группа C. 2-й тур. Бразилия - Ирак [07.08] (2016) IPTVRip 720p BOSS 3.19 GB
XXXI Летние Олимпийские игры. Рио-де-Жанейро 2016 (Бразилия) XXXI Летние Олимпийские Игры. Рио-де-Жанейро (Бразилия). Футбол. Мужчины. Группа D. 2-й тур. Аргентина - Алжир [07.08] (2016) IPTVRip 720p ODESSA 3.07 GB
XXXI Летние Олимпийские игры. Рио-де-Жанейро 2016 (Бразилия) XXXI Летние Олимпийские Игры. Рио-де-Жанейро (Бразилия). Футбол. Мужчины. Группа А. 1-й тур. Ирак - Дания [04.08] (2016) HDTVRip 720p | 50 fps ODESSA 3.19 GB
Культура и спорт [Журнал/Газета] [Еженедельник] "Футбол"(Москва) [1960-1970, 2008-2013 PDF, RUS] sergej644 14.17 GB
Показать сообщения:    

Текущее время: Сегодня 10:53

Часовой пояс: GMT



Вы не можете начинать темы
Вы не можете отвечать на сообщения
Вы не можете редактировать свои сообщения
Вы не можете удалять свои сообщения
Вы не можете голосовать в опросах
Вы не можете прикреплять файлы к сообщениям
Вы не можете скачивать файлы