Футбол. Чемпионат Англии 2016-17. Match of the Day. 07-й тур. Обзор матчей [01-02.10] (2016) HDTVRip 720p

 
Автор Сообщение

достали все ®

Пол:

Стаж: 1 год 8 месяцев

Сообщений: 6571



Награды: 12 (Подробнее)

Mega Releaser 2 (Количество: 1) Mega Seeder 4 (Количество: 1) Top Releaser 3 (Количество: 1)
Торрент-статистика

Создавать темы 03-Окт-2016 16:17

[Цитировать]

Match of the Day
Вид спорта: Футбол
Год выпуска: 01.10.2016-02.10.2016
Язык комментариев: Английский
Описание: Выпуск "Match of the Day", посвященный прошедшим матчам 7-го тура АПЛ.
Автор рипа: verum
Качество: HDTVRip
Формат видео: MKV
Видео: AVC, 1280*720, 50 fps, 3606 Kbps
Аудио: AC-3, 6 ch, 48,0 KHz, 384 Kbps

Продолжительность

1:19:02 + 1:20:01

MI

General
Unique ID : 0 (0x0)
Complete name : F:APLMatch of the Day 2016-2017s.16-17 Week 07match.of.the.day.2016.10.01.720p.hdtv.x264-verum.mkv
Format : Matroska
Format version : Version 4 / Version 2
File size : 2.25 GiB
Duration : 1h 19mn
Overall bit rate : 4 071 Kbps
Encoded date : UTC 2010-02-22 21:41:29
Writing application : no_variable_data
Writing library : no_variable_data
Video
ID : 1
Format : AVC
Format/Info : Advanced Video Codec
Format profile : High@L4.1
Format settings, CABAC : Yes
Format settings, ReFrames : 5 frames
Codec ID : V_MPEG4/ISO/AVC
Duration : 1h 19mn
Bit rate : 3 606 Kbps
Width : 1 280 pixels
Height : 720 pixels
Display aspect ratio : 16:9
Frame rate mode : Constant
Frame rate : 50.000 fps
Color space : YUV
Chroma subsampling : 4:2:0
Bit depth : 8 bits
Scan type : Progressive
Bits/(Pixel*Frame) : 0.078
Stream size : 1.99 GiB (89%)
Writing library : x264 core 148 r2705 3f5ed56
Encoding settings : cabac=1 / ref=5 / deblock=1:0:0 / analyse=0x3:0x113 / me=umh / subme=8 / psy=1 / psy_rd=1.00:0.00 / mixed_ref=1 / me_range=16 / chroma_me=1 / trellis=1 / 8x8dct=1 / cqm=0 / deadzone=21,11 / fast_pskip=1 / chroma_qp_offset=-2 / threads=12 / lookahead_threads=2 / sliced_threads=0 / nr=0 / decimate=1 / interlaced=0 / bluray_compat=0 / constrained_intra=0 / bframes=3 / b_pyramid=2 / b_adapt=2 / b_bias=0 / direct=3 / weightb=1 / open_gop=0 / weightp=2 / keyint=250 / keyint_min=25 / scenecut=40 / intra_refresh=0 / rc_lookahead=50 / rc=crf / mbtree=1 / crf=22.0 / qcomp=0.60 / qpmin=0 / qpmax=69 / qpstep=4 / ip_ratio=1.40 / aq=1:1.00
Language : English
Default : Yes
Forced : No
Matrix coefficients : BT.709
Audio
ID : 2
Format : AC-3
Format/Info : Audio Coding 3
Mode extension : CM (complete main)
Format settings, Endianness : Big
Codec ID : A_AC3
Duration : 1h 19mn
Bit rate mode : Constant
Bit rate : 384 Kbps
Channel(s) : 6 channels
Channel positions : Front: L C R, Side: L R, LFE
Sampling rate : 48.0 KHz
Bit depth : 16 bits
Compression mode : Lossy
Stream size : 217 MiB (9%)
Language : English
Default : Yes
Forced : No
General
Unique ID : 0 (0x0)
Complete name : F:APLMatch of the Day 2016-2017s.16-17 Week 07match.of.the.day.two.2016.10.02.720p.hdtv.x264-verum.mkv
Format : Matroska
Format version : Version 4 / Version 2
File size : 2.14 GiB
Duration : 1h 20mn
Overall bit rate : 3 829 Kbps
Encoded date : UTC 2010-02-22 21:41:29
Writing application : no_variable_data
Writing library : no_variable_data
Video
ID : 1
Format : AVC
Format/Info : Advanced Video Codec
Format profile : High@L4.1
Format settings, CABAC : Yes
Format settings, ReFrames : 5 frames
Codec ID : V_MPEG4/ISO/AVC
Duration : 1h 20mn
Bit rate : 3 369 Kbps
Width : 1 280 pixels
Height : 720 pixels
Display aspect ratio : 16:9
Frame rate mode : Constant
Frame rate : 50.000 fps
Color space : YUV
Chroma subsampling : 4:2:0
Bit depth : 8 bits
Scan type : Progressive
Bits/(Pixel*Frame) : 0.073
Stream size : 1.88 GiB (88%)
Writing library : x264 core 148 r2705 3f5ed56
Encoding settings : cabac=1 / ref=5 / deblock=1:0:0 / analyse=0x3:0x113 / me=umh / subme=8 / psy=1 / psy_rd=1.00:0.00 / mixed_ref=1 / me_range=16 / chroma_me=1 / trellis=1 / 8x8dct=1 / cqm=0 / deadzone=21,11 / fast_pskip=1 / chroma_qp_offset=-2 / threads=12 / lookahead_threads=2 / sliced_threads=0 / nr=0 / decimate=1 / interlaced=0 / bluray_compat=0 / constrained_intra=0 / bframes=3 / b_pyramid=2 / b_adapt=2 / b_bias=0 / direct=3 / weightb=1 / open_gop=0 / weightp=2 / keyint=250 / keyint_min=25 / scenecut=40 / intra_refresh=0 / rc_lookahead=50 / rc=crf / mbtree=1 / crf=22.0 / qcomp=0.60 / qpmin=0 / qpmax=69 / qpstep=4 / ip_ratio=1.40 / aq=1:1.00
Language : English
Default : Yes
Forced : No
Matrix coefficients : BT.709
Audio
ID : 2
Format : AC-3
Format/Info : Audio Coding 3
Mode extension : CM (complete main)
Format settings, Endianness : Big
Codec ID : A_AC3
Duration : 1h 20mn
Bit rate mode : Constant
Bit rate : 384 Kbps
Channel(s) : 6 channels
Channel positions : Front: L C R, Side: L R, LFE
Sampling rate : 48.0 KHz
Bit depth : 16 bits
Compression mode : Lossy
Stream size : 220 MiB (10%)
Language : English
Default : Yes
Forced : No
[Профиль] [ЛС]
Кто просматривает тему:

Форум Тема Автор Размер
Футбол HФутбол. Чемпионат Испании 2015-16. 31-й тур. Барселона - Реал [02.04] (2016) DTVRip Russian Mafia 1.41 GB
XXXI Летние Олимпийские игры. Рио-де-Жанейро 2016 (Бразилия) XXXI Летние Олимпийские Игры. Рио-де-Жанейро (Бразилия). Футбол. Мужчины. Группа B. 1-й тур. Нигерия - Япония [04.08] (2016) HDTVRip 720p | 50 fps ODESSA 3.08 GB
XXXI Летние Олимпийские игры. Рио-де-Жанейро 2016 (Бразилия) XXXI Летние Олимпийские Игры. Рио-де-Жанейро (Бразилия). Футбол. Мужчины. Группа C. 1-й тур. Мексика - Германия [04.08] (2016) IPTVRip-AVC Russian Mafia 1.42 GB
XXXI Летние Олимпийские игры. Рио-де-Жанейро 2016 (Бразилия) XXXI Летние Олимпийские Игры. Рио-де-Жанейро (Бразилия). Футбол. Мужчины. Группа C. 1-й тур. Фиджи - Мексика [07.08] (2016) IPTVRip 720p Russian Mafia 2.99 GB
XXXI Летние Олимпийские игры. Рио-де-Жанейро 2016 (Бразилия) XXXI Летние Олимпийские Игры. Рио-де-Жанейро (Бразилия). Футбол. Мужчины. Группа C. 2-й тур. Бразилия - Ирак [07.08] (2016) IPTVRip 720p BOSS 3.19 GB
XXXI Летние Олимпийские игры. Рио-де-Жанейро 2016 (Бразилия) XXXI Летние Олимпийские Игры. Рио-де-Жанейро (Бразилия). Футбол. Мужчины. Группа D. 2-й тур. Аргентина - Алжир [07.08] (2016) IPTVRip 720p ODESSA 3.07 GB
XXXI Летние Олимпийские игры. Рио-де-Жанейро 2016 (Бразилия) XXXI Летние Олимпийские Игры. Рио-де-Жанейро (Бразилия). Футбол. Мужчины. Группа А. 1-й тур. Ирак - Дания [04.08] (2016) HDTVRip 720p | 50 fps ODESSA 3.19 GB
Культура и спорт [Журнал/Газета] [Еженедельник] "Футбол"(Москва) [1960-1970, 2008-2013 PDF, RUS] sergej644 14.17 GB
Показать сообщения:    

Текущее время: Сегодня 18:38

Часовой пояс: GMT



Вы не можете начинать темы
Вы не можете отвечать на сообщения
Вы не можете редактировать свои сообщения
Вы не можете удалять свои сообщения
Вы не можете голосовать в опросах
Вы не можете прикреплять файлы к сообщениям
Вы не можете скачивать файлы