Футбол. Чемпионат Англии 2015-16. Match of the Day. 06-й тур. Обзор матчей [24-25.09] (2016) HDTVRip 720p

 
Автор Сообщение

достали все ®

Пол:

Стаж: 1 год 8 месяцев

Сообщений: 6545



Награды: 12 (Подробнее)

Mega Seeder 1 (Количество: 1) Mega Releaser 2 (Количество: 1) Mega Seeder 2 (Количество: 1)
Торрент-статистика

Создавать темы 27-Сен-2016 05:07

[Цитировать]

Match of the Day
Вид спорта: Футбол
Год выпуска: 24.09.2016-25.09.2016
Язык комментариев: Английский
Описание: Выпуск "Match of the Day", посвященный прошедшим в субботу и воскресенье матчам 6-го тура АПЛ.
Автор рипа: GaLaTaMaN
Качество: HDTVRip
Формат видео: MKV
Видео: AVC, 1280*720, 25 fps, 3000 Kbps
Аудио: MP3, 2 ch, 48,0 KHz, 192 Kbps

Продолжительность

1:30:00 + 0:44:16

MI

General
Unique ID : 2448795915144758560210962253668669428 (0x1D79EF5CC12CB1A0248B35D2F6FD7F4)
Complete name : F:APLMatch of the Day 2016-2017s.16-17 Week 06160924-MTD-M6-EPL-F-720.mkv
Format : Matroska
Format version : Version 2
File size : 2.00 GiB
Duration : 1h 30mn
Overall bit rate : 3 189 Kbps
Encoded date : UTC 2016-09-24T23:08:48Z
Writing application : HandBrake 0.10.5 2016021100
Writing library : Lavf55.12.0
Video
ID : 1
Format : AVC
Format/Info : Advanced Video Codec
Format profile : Main@L4.0
Format settings, CABAC : Yes
Format settings, ReFrames : 4 frames
Codec ID : V_MPEG4/ISO/AVC
Bit rate : 3 000 Kbps
Width : 1 280 pixels
Height : 720 pixels
Display aspect ratio : 16:9
Frame rate mode : Variable
Color space : YUV
Chroma subsampling : 4:2:0
Bit depth : 8 bits
Scan type : Progressive
Writing library : x264 core 142 r2479 dd79a61
Encoding settings : cabac=1 / ref=1 / deblock=1:0:0 / analyse=0x1:0x111 / me=hex / subme=2 / psy=1 / psy_rd=1.00:0.00 / mixed_ref=0 / me_range=16 / chroma_me=1 / trellis=0 / 8x8dct=0 / cqm=0 / deadzone=21,11 / fast_pskip=1 / chroma_qp_offset=0 / threads=12 / lookahead_threads=4 / sliced_threads=0 / nr=0 / decimate=1 / interlaced=0 / bluray_compat=0 / constrained_intra=0 / bframes=3 / b_pyramid=2 / b_adapt=1 / b_bias=0 / direct=1 / weightb=1 / open_gop=0 / weightp=1 / keyint=250 / keyint_min=25 / scenecut=40 / intra_refresh=0 / rc_lookahead=10 / rc=abr / mbtree=1 / bitrate=3000 / ratetol=1.0 / qcomp=0.60 / qpmin=0 / qpmax=69 / qpstep=4 / vbv_maxrate=20000 / vbv_bufsize=25000 / nal_hrd=none / filler=0 / ip_ratio=1.40 / aq=1:1.00
Default : Yes
Forced : No
Color primaries : BT.709
Transfer characteristics : BT.709
Matrix coefficients : BT.709
Audio
ID : 2
Format : MPEG Audio
Format version : Version 1
Format profile : Layer 3
Mode : Joint stereo
Mode extension : MS Stereo
Codec ID : A_MPEG/L3
Codec ID/Hint : MP3
Duration : 1h 30mn
Bit rate mode : Constant
Bit rate : 192 Kbps
Channel(s) : 2 channels
Sampling rate : 48.0 KHz
Compression mode : Lossy
Delay relative to video : 1mn 5s
Stream size : 124 MiB (6%)
Title : Stereo
Language : English
Default : Yes
Forced : No
General
Unique ID : 80111403165229193223553347256936226349 (0x3C44E5204FA8D81D1A63B8FCF2DADE2D)
Complete name : F:APLMatch of the Day 2016-2017s.16-17 Week 06160925-MTD2-M6-EPL-F-720.mkv
Format : Matroska
Format version : Version 2
File size : 1 017 MiB
Duration : 44mn 16s
Overall bit rate : 3 210 Kbps
Encoded date : UTC 2016-09-25T22:18:32Z
Writing application : HandBrake 0.10.5 2016021100
Writing library : Lavf55.12.0
Video
ID : 1
Format : AVC
Format/Info : Advanced Video Codec
Format profile : Main@L4.0
Format settings, CABAC : Yes
Format settings, ReFrames : 4 frames
Codec ID : V_MPEG4/ISO/AVC
Bit rate : 3 000 Kbps
Width : 1 280 pixels
Height : 720 pixels
Display aspect ratio : 16:9
Frame rate mode : Variable
Color space : YUV
Chroma subsampling : 4:2:0
Bit depth : 8 bits
Scan type : Progressive
Writing library : x264 core 142 r2479 dd79a61
Encoding settings : cabac=1 / ref=1 / deblock=1:0:0 / analyse=0x1:0x111 / me=hex / subme=2 / psy=1 / psy_rd=1.00:0.00 / mixed_ref=0 / me_range=16 / chroma_me=1 / trellis=0 / 8x8dct=0 / cqm=0 / deadzone=21,11 / fast_pskip=1 / chroma_qp_offset=0 / threads=12 / lookahead_threads=4 / sliced_threads=0 / nr=0 / decimate=1 / interlaced=0 / bluray_compat=0 / constrained_intra=0 / bframes=3 / b_pyramid=2 / b_adapt=1 / b_bias=0 / direct=1 / weightb=1 / open_gop=0 / weightp=1 / keyint=250 / keyint_min=25 / scenecut=40 / intra_refresh=0 / rc_lookahead=10 / rc=abr / mbtree=1 / bitrate=3000 / ratetol=1.0 / qcomp=0.60 / qpmin=0 / qpmax=69 / qpstep=4 / vbv_maxrate=20000 / vbv_bufsize=25000 / nal_hrd=none / filler=0 / ip_ratio=1.40 / aq=1:1.00
Default : Yes
Forced : No
Color primaries : BT.709
Transfer characteristics : BT.709
Matrix coefficients : BT.709
Audio
ID : 2
Format : MPEG Audio
Format version : Version 1
Format profile : Layer 3
Mode : Joint stereo
Mode extension : MS Stereo
Codec ID : A_MPEG/L3
Codec ID/Hint : MP3
Duration : 44mn 16s
Bit rate mode : Constant
Bit rate : 192 Kbps
Channel(s) : 2 channels
Sampling rate : 48.0 KHz
Compression mode : Lossy
Delay relative to video : 1mn 5s
Stream size : 60.8 MiB (6%)
Title : Stereo
Writing library : LAME3.98ЄЄЄЄЄЄЄЄЄЄЄЄ
Language : English
Default : Yes
Forced : No
[Профиль] [ЛС]
Кто просматривает тему:

Форум Тема Автор Размер
Футбол HФутбол. Чемпионат Испании 2015-16. 31-й тур. Барселона - Реал [02.04] (2016) DTVRip Russian Mafia 1.41 GB
XXXI Летние Олимпийские игры. Рио-де-Жанейро 2016 (Бразилия) XXXI Летние Олимпийские Игры. Рио-де-Жанейро (Бразилия). Футбол. Мужчины. Группа B. 1-й тур. Нигерия - Япония [04.08] (2016) HDTVRip 720p | 50 fps ODESSA 3.08 GB
XXXI Летние Олимпийские игры. Рио-де-Жанейро 2016 (Бразилия) XXXI Летние Олимпийские Игры. Рио-де-Жанейро (Бразилия). Футбол. Мужчины. Группа C. 1-й тур. Мексика - Германия [04.08] (2016) IPTVRip-AVC Russian Mafia 1.42 GB
XXXI Летние Олимпийские игры. Рио-де-Жанейро 2016 (Бразилия) XXXI Летние Олимпийские Игры. Рио-де-Жанейро (Бразилия). Футбол. Мужчины. Группа C. 1-й тур. Фиджи - Мексика [07.08] (2016) IPTVRip 720p Russian Mafia 2.99 GB
XXXI Летние Олимпийские игры. Рио-де-Жанейро 2016 (Бразилия) XXXI Летние Олимпийские Игры. Рио-де-Жанейро (Бразилия). Футбол. Мужчины. Группа C. 2-й тур. Бразилия - Ирак [07.08] (2016) IPTVRip 720p BOSS 3.19 GB
XXXI Летние Олимпийские игры. Рио-де-Жанейро 2016 (Бразилия) XXXI Летние Олимпийские Игры. Рио-де-Жанейро (Бразилия). Футбол. Мужчины. Группа D. 2-й тур. Аргентина - Алжир [07.08] (2016) IPTVRip 720p ODESSA 3.07 GB
XXXI Летние Олимпийские игры. Рио-де-Жанейро 2016 (Бразилия) XXXI Летние Олимпийские Игры. Рио-де-Жанейро (Бразилия). Футбол. Мужчины. Группа А. 1-й тур. Ирак - Дания [04.08] (2016) HDTVRip 720p | 50 fps ODESSA 3.19 GB
Культура и спорт [Журнал/Газета] [Еженедельник] "Футбол"(Москва) [1960-1970, 2008-2013 PDF, RUS] sergej644 14.17 GB
Показать сообщения:    

Текущее время: Сегодня 00:50

Часовой пояс: GMT



Вы не можете начинать темы
Вы не можете отвечать на сообщения
Вы не можете редактировать свои сообщения
Вы не можете удалять свои сообщения
Вы не можете голосовать в опросах
Вы не можете прикреплять файлы к сообщениям
Вы не можете скачивать файлы