Фурано-жизнь в заснеженном лесу острова Хоккайдо / Furano: Life in Hokkaido's Frozen Forest (Tetsunori Kikuchi, Tatsuhiro Beniko) [2003 г., Документальный, флора, фауна, HDTVRip 720p]

 
Автор Сообщение

skorpionN ®

Пол:

Стаж: 1 год 8 месяцев

Сообщений: 591



Награды: 4 (Подробнее)

Mega Seeder 2 (Количество: 1) Mega Seeder 1 (Количество: 1) Mega Seeder 3 (Количество: 1)
Торрент-статистика

Создавать темы 11-Июл-2015 07:53

[Цитировать]

Фурано-жизнь в заснеженном лесу острова Хоккайдо / Furano: Life in Hokkaido's Frozen Forest
Год выпуска: 2003
Страна: Япония, NHK
Жанр: Документальный, флора, фауна
Продолжительность: 00:49:00
Перевод: Профессиональный (одноголосый)
Режиссер: Tetsunori Kikuchi, Tatsuhiro Beniko
Описание: Лес Фурано на самом северном острове Японии Хоккайдо полгода покрыт снегом. Животным и растениям приходится бороться за выживание. Фурано считается заповедником мирового масштаба, сотрудники университета Токио проводят здесь исследования. Мы узнаем, как обитатели леса приспосабливаются к суровым условиям и переносят долгую зиму.
Качество: HDTVRip 720p
Формат: MKV
Видео кодек: H.264
Аудио кодек: AC3
Видео: 1280x720 25fps 5000 Kbps
Аудио: AC3, 2ch, 448 kbps, 48 kHz

Дополнительная информация:

Исходник: рип от DeTorquemada Фурано-жизнь в заснеженном лесу острова Хоккайдо / Furano: Life in Hokkaido's Frozen Forest (2003) 1080i HDTV

Скриншоты


MediaInfo:

Format : Matroska
Format version : Version 4 / Version 2
File size : 1.87 GiB
Duration : 49mn 0s
Overall bit rate : 5 450 Kbps
Encoded date : UTC 2015-07-11 06:51:25
Writing application : mkvmerge v8.1.0 ('Psychedelic Postcard') 64bit
Writing library : libebml v1.3.1 + libmatroska v1.4.2
DURATION : 00:49:00.064000000
NUMBER_OF_FRAMES : 91877
NUMBER_OF_BYTES : 164643584
_STATISTICS_WRITING_APP : mkvmerge v8.1.0 ('Psychedelic Postcard') 64bit
_STATISTICS_WRITING_DATE_UTC : 2015-07-11 06:51:25
_STATISTICS_TAGS : BPS DURATION NUMBER_OF_FRAMES NUMBER_OF_BYTES
Video
ID : 1
Format : AVC
Format/Info : Advanced Video Codec
Format profile : High@L4.1
Format settings, CABAC : Yes
Format settings, ReFrames : 4 frames
Codec ID : V_MPEG4/ISO/AVC
Duration : 49mn 0s
Bit rate : 5 000 Kbps
Width : 1 280 pixels
Height : 720 pixels
Display aspect ratio : 16:9
Frame rate mode : Constant
Frame rate : 25.000 fps
Color space : YUV
Chroma subsampling : 4:2:0
Bit depth : 8 bits
Scan type : Progressive
Bits/(Pixel*Frame) : 0.217
Stream size : 1.67 GiB (90%)
Writing library : x264 core 119 r2106 07efeb4
Encoding settings : cabac=1 / ref=3 / deblock=1:0:0 / analyse=0x3:0x113 / me=hex / subme=7 / psy=1 / psy_rd=1.00:0.00 / mixed_ref=1 / me_range=16 / chroma_me=1 / trellis=1 / 8x8dct=1 / cqm=0 / deadzone=21,11 / fast_pskip=1 / chroma_qp_offset=-2 / threads=6 / sliced_threads=0 / nr=0 / decimate=1 / interlaced=0 / bluray_compat=0 / constrained_intra=0 / bframes=3 / b_pyramid=2 / b_adapt=1 / b_bias=0 / direct=1 / weightb=1 / open_gop=0 / weightp=2 / keyint=250 / keyint_min=25 / scenecut=40 / intra_refresh=0 / rc_lookahead=40 / rc=2pass / mbtree=1 / bitrate=5000 / ratetol=1.0 / qcomp=0.60 / qpmin=0 / qpmax=69 / qpstep=4 / cplxblur=20.0 / qblur=0.5 / ip_ratio=1.40 / aq=1:1.00
Default : Yes
Forced : No
Audio
ID : 2
Format : AC-3
Format/Info : Audio Coding 3
Mode extension : CM (complete main)
Format settings, Endianness : Big
Codec ID : A_AC3
Duration : 49mn 0s
Bit rate mode : Constant
Bit rate : 448 Kbps
Channel(s) : 2 channels
Channel positions : Front: L R
Sampling rate : 48.0 KHz
Compression mode : Lossy
Stream size : 157 MiB (8%)
Default : Yes
Forced : No
[Профиль] [ЛС]
Кто просматривает тему:

Показать сообщения:    

Текущее время: Сегодня 11:54

Часовой пояс: GMT



Вы не можете начинать темы
Вы не можете отвечать на сообщения
Вы не можете редактировать свои сообщения
Вы не можете удалять свои сообщения
Вы не можете голосовать в опросах
Вы не можете прикреплять файлы к сообщениям
Вы не можете скачивать файлы